<?xml version="1.0" standalone="no"?>
<!DOCTYPE svg PUBLIC "-//W3C//DTD SVG 1.1//EN" "http://www.w3.org/Graphics/SVG/1.1/DTD/svg11.dtd" >
<svg xmlns="http://www.w3.org/2000/svg" xmlns:xlink="http://www.w3.org/1999/xlink" version="1.1">
<metadata>
Created by FontForge 20190801 at Tue Feb 23 17:01:03 2016
 By root
Copyright (c) 2014, Linus Romer, with Reserved Font Name Miama Nueva.

This Font Software is licensed under the SIL Open Font License, Version 1.1.
</metadata>
<defs>
<font id="MiamaNueva" horiz-adv-x="300" >
  <font-face 
    font-family="Miama Nueva"
    font-weight="400"
    font-style="italic"
    font-stretch="normal"
    units-per-em="1000"
    panose-1="2 0 6 3 0 0 0 0 0 0"
    ascent="800"
    descent="-200"
    x-height="448"
    cap-height="939"
    bbox="-814 -1230 1872 1468"
    underline-thickness="48"
    underline-position="-128"
    slope="-28"
    unicode-range="U+0020-10147"
  />
<missing-glyph horiz-adv-x="364" 
d="M33 0v666h265v-666h-265zM66 33h199v600h-199v-600z" />
    <glyph glyph-name="ff" unicode="ff" horiz-adv-x="800" 
d="M12 -225q60 25 124 48.5t157 55.5t116 40q47 99 137 284q-53 -64 -106 -105q-22 -17 -47.5 -33t-56 -31t-51.5 -25.5t-57 -24.5t-48 -18.5t-49 -17.5l-37 -14q-9 -19 -82 -159zM-328 -792q60 -65 164 -65q47 0 100.5 31.5t100 80.5t84.5 102t64 104q134 269 214 436
q-21 -7 -90.5 -31t-108 -38t-97.5 -37t-106 -45l-180 -332q-61 -114 -145 -206zM-100 -302q-277 -153 -277 -362q0 -55 27 -99q57 76 104 168q73 146 146 293zM-733 -700q0 -89 44.5 -152t121.5 -63q82 0 171 96q-52 59 -52 136q0 69 27.5 130.5t79.5 112.5t115 92.5
t144 80.5q36 72 80 164q-25 -9 -77 -28q-243 -89 -353 -149q-251 -137 -292 -333q-9 -42 -9 -87zM840 98q-117 -89 -349 -176q-44 -89 -105 -202t-100 -182l-38 -68q-34 -64 -83.5 -126t-110 -117t-133 -88.5t-141.5 -33.5q-90 0 -155 56q-124 -112 -242 -112
q-72 0 -127.5 64.5t-55.5 157.5q0 263 324 448q139 79 419 180q65 23 68 24q16 34 70.5 147t86.5 178q131 265 227 434q190 334 357 334q52 0 78 -33t26 -60q0 -4 -0.5 -7t-1.5 -5t-3.5 -5.5t-4 -5.5t-5.5 -7t-7 -8q-7 -9 -16 -21.5t-13.5 -17.5t-7.5 -5t-3 3l3 6q3 6 3 17
q0 41 -28.5 75t-72.5 34q-61 0 -119 -72.5t-135 -227.5q-61 -122 -224 -476q-68 -148 -114 -242q66 22 101.5 35t106.5 46.5t117 68.5q62 48 136 140q14 29 82.5 171t110 225.5t71.5 135.5q98 171 181 247.5t166 76.5q32 0 54 -20.5t29.5 -41t7.5 -35.5q0 -34 -9 -59
t-31 -59q-9 -15 -37 -27q-13 -6 -20 -6q-3 0 -3 2t1 3q22 33 29.5 56t7.5 58q0 37 -25 63t-57 26q-61 0 -113.5 -67t-130.5 -223q-41 -82 -83.5 -174.5t-98.5 -220.5t-79 -179q-98 -214 -118 -255q204 68 329 163q62 48 136 140q4 6 8 6t4 -4q0 -2 -2 -6q-68 -92 -138 -146z
" />
    <glyph glyph-name="fi" unicode="fi" horiz-adv-x="764" 
d="M-737 -640q0 -87 56 -148t137 -61q91 0 166.5 72t131.5 182q164 325 244 492q-40 -15 -118 -42.5t-127 -45t-120.5 -47.5t-117.5 -56t-98.5 -64.5t-82.5 -78t-50.5 -92t-20.5 -111.5zM440 98q-22 -17 -47.5 -33t-56 -31t-51.5 -25.5t-57 -24.5t-48 -18.5t-49 -17.5
l-37 -14q-44 -89 -113.5 -219t-116.5 -215l-47 -86q-70 -132 -177.5 -215.5t-235.5 -83.5q-84 0 -151 59.5t-67 150.5q0 53 15 101.5t39 87.5t63.5 77t79 66.5t95.5 58t102.5 50t110.5 45t109.5 40t109.5 37.5t101 35q16 33 69.5 146.5t86.5 178.5q21 41 62.5 126.5
t66.5 136t67 127.5t72.5 124.5t73.5 103.5t80.5 87t82.5 52.5t90 21.5q65 0 102.5 -42.5t37.5 -104.5q0 -27 -8 -45.5t-16.5 -26t-26 -18t-26.5 -17.5q-16 -13 -16 -28q0 -13 13 -32.5t13 -30.5q0 -22 -15 -37t-37 -15q-17 0 -29.5 13t-12.5 32q0 27 52 79q30 30 38.5 51.5
t8.5 64.5q0 55 -35.5 87.5t-93.5 32.5q-36 0 -73.5 -25t-75 -75.5t-70.5 -104.5t-72.5 -136.5t-68 -145t-69.5 -156t-65 -146.5q-8 -17 -47.5 -107t-62.5 -136q66 22 101.5 35t106.5 46.5t117 68.5q38 29 76 69q17 33 49.5 85t51.5 86.5t19 51.5q0 32 -20 32q-23 0 -74 -34
q-9 -6 -10 -6q-4 0 -4 4t6 8q75 56 120 56q29 0 44 -13.5t15 -35.5q0 -42 -76 -165t-76 -165q0 -55 75 -55q59 0 168 82q62 48 136 140q4 6 8 6t4 -4q0 -2 -2 -6q-68 -92 -138 -146q-51 -41 -114.5 -73.5t-119.5 -32.5q-44 0 -70.5 19.5t-26.5 57.5q0 29 20 76
q-25 -25 -53 -47z" />
    <glyph glyph-name="fl" unicode="fl" horiz-adv-x="802" 
d="M568 248q56 99 200 358q40 71 58.5 105t57 109.5t57 130.5t18.5 92q0 32 -18.5 57t-44.5 25q-36 0 -79 -28q26 -11 38 -36.5t12 -47.5q0 -19 -5.5 -26t-26.5 -16q-9 -4 -16 -8l-10.5 -6t-6.5 -2t-3 3l3 6q3 6 3 17q0 39 -23 61t-56 22q-61 0 -113.5 -67t-130.5 -223
q-41 -82 -83.5 -174.5t-98.5 -220.5t-79 -179q-68 -148 -114 -242q66 22 101.5 35t106.5 46.5t117 68.5q62 48 136 140zM-733 -700q0 -89 44.5 -152t121.5 -63q47 0 96 31t91 82.5t74 101.5t60 105q164 325 244 492q-25 -9 -77 -28q-243 -89 -353 -149q-251 -137 -292 -333
q-9 -42 -9 -87zM654 278q-62 -121 -72 -155q-8 -28 -8 -55q0 -25 16 -43t42 -18q52 0 99.5 19.5t94.5 63t68.5 67.5t65.5 79q7 8 10 12q4 6 8 6t4 -4q0 -2 -2 -6q-42 -57 -79 -98t-86.5 -83t-107 -64t-119.5 -22q-44 0 -69.5 20.5t-25.5 58.5q0 49 46 138q-48 -58 -99 -96
q-22 -17 -47.5 -33t-56 -31t-51.5 -25.5t-57 -24.5t-48 -18.5t-49 -17.5l-37 -14q-44 -89 -113.5 -219t-116.5 -215l-47 -86q-35 -65 -80 -126.5t-101 -116.5t-122.5 -88.5t-130.5 -33.5q-72 0 -127.5 64.5t-55.5 157.5q0 263 324 448q139 79 419 180q65 23 68 24
q16 34 70.5 147t86.5 178q14 29 82.5 171t110 225.5t71.5 135.5q98 171 181 247.5t166 76.5q13 0 24 -3q73 50 135 50q52 0 74 -33.5t22 -76.5q0 -40 -33.5 -118.5t-69.5 -145t-112 -198.5q-80 -139 -165 -301z" />
    <glyph glyph-name="ffi" unicode="ffi" horiz-adv-x="1164" 
d="M543 200q-55 -65 -103 -102q-22 -17 -47.5 -33t-56 -31t-51.5 -25.5t-57 -24.5t-48 -18.5t-49 -17.5l-37 -14q-14 -29 -79 -154q60 25 128.5 50t149 52t118.5 41q21 42 64.5 134.5t67.5 142.5zM-100 -302q-237 -136 -237 -338q0 -41 16 -83q38 55 75 128q73 146 146 293z
M-3 -253l-180 -333q-55 -101 -118 -176q27 -40 68 -63.5t89 -23.5q91 0 166.5 72t131.5 182q164 325 244 492q-42 -16 -124 -44t-151 -54t-126 -52zM168 248q120 249 231 444q38 68 63.5 110t59.5 93t62 81t61.5 58t69 40t74.5 12q64 0 93 -40t29 -84q0 -5 -4.5 -10.5
t-13.5 -12t-13 -10.5q-30 -30 -34 -30q-5 0 -5 6q0 1 2.5 10t2.5 16q0 17 -4.5 34.5t-14.5 38t-32.5 33t-54.5 12.5q-20 0 -39 -5.5t-37.5 -19.5t-33 -26.5t-32.5 -39t-29.5 -43t-30.5 -52.5t-28.5 -54.5t-30.5 -61t-30 -61.5q-75 -150 -138 -288q-38 -82 -90 -198
q-68 -148 -114 -242q66 22 101.5 35t106.5 46.5t117 68.5q61 47 133 137l1 1q0 2 1 2q21 41 62.5 126.5t66.5 136t67 127.5t72.5 124.5t73.5 103.5t80.5 87t82.5 52.5t90 21.5q65 0 102.5 -42.5t37.5 -104.5q0 -27 -8 -45.5t-16.5 -26t-26 -18t-26.5 -17.5q-16 -13 -16 -28
q0 -13 13 -32.5t13 -30.5q0 -22 -15 -37t-37 -15q-17 0 -29.5 13t-12.5 32q0 27 52 79q30 30 38.5 51.5t8.5 64.5q0 55 -35.5 87.5t-93.5 32.5q-36 0 -73.5 -25t-75 -75.5t-70.5 -104.5t-72.5 -136.5t-68 -145t-69.5 -156t-65 -146.5q-8 -17 -47.5 -107t-62.5 -136
q66 22 101.5 35t106.5 46.5t117 68.5q38 29 76 69q17 33 49.5 85t51.5 86.5t19 51.5q0 32 -20 32q-23 0 -74 -34q-9 -6 -10 -6q-4 0 -4 4t6 8q75 56 120 56q29 0 44 -13.5t15 -35.5q0 -42 -76 -165t-76 -165q0 -55 75 -55q59 0 168 82q62 48 136 140q4 6 8 6t4 -4
q0 -2 -2 -6q-68 -92 -138 -146q-51 -41 -114.5 -73.5t-119.5 -32.5q-44 0 -70.5 19.5t-26.5 57.5q0 29 20 76q-25 -25 -53 -47q-22 -17 -47.5 -33t-56 -31t-51.5 -25.5t-57 -24.5t-48 -18.5t-49 -17.5l-37 -14q-44 -89 -113.5 -219t-116.5 -215l-47 -86
q-70 -132 -177.5 -215.5t-235.5 -83.5q-92 0 -158 66q-134 -132 -263 -132q-72 0 -127.5 64.5t-55.5 157.5q0 263 324 448q139 79 419 180q65 23 68 24q16 34 70.5 147t86.5 178zM-733 -700q0 -89 44.5 -152t121.5 -63q91 0 192 120q-39 54 -39 120q0 136 89 235.5
t245 176.5q17 34 46.5 94.5t31.5 65.5q-25 -9 -77 -28q-243 -89 -353 -149q-251 -137 -292 -333q-9 -42 -9 -87z" />
    <glyph glyph-name="ffl" unicode="ffl" horiz-adv-x="1202" 
d="M968 248q56 99 200 358q40 71 58.5 105t57 109.5t57 130.5t18.5 92q0 32 -18.5 57t-44.5 25q-36 0 -79 -28q26 -11 38 -36.5t12 -47.5q0 -19 -5.5 -26t-26.5 -16q-9 -4 -16 -8l-10.5 -6t-6.5 -2t-3 3l3 6q3 6 3 17q0 39 -23 61t-56 22q-61 0 -113.5 -67t-130.5 -223
q-32 -64 -69 -144t-62 -136t-68.5 -154t-61.5 -140q-98 -214 -118 -255q204 68 329 163q62 48 136 140zM546 203q-53 -64 -106 -105q-22 -17 -47.5 -33t-56 -31t-51.5 -25.5t-57 -24.5t-48 -18.5t-49 -17.5l-37 -14q-9 -19 -82 -159q60 25 124 48.5t157 55.5t116 40
q47 99 137 284zM-100 -302q-277 -153 -277 -362q0 -55 27 -99q57 76 104 168q73 146 146 293zM-3 -254l-180 -332q-61 -114 -145 -206q60 -65 164 -65q47 0 100.5 31.5t100 80.5t84.5 102t64 104q134 269 214 436q-21 -7 -90.5 -31t-108 -38t-97.5 -37t-106 -45zM1054 278
q-62 -121 -72 -155q-8 -28 -8 -55q0 -25 16 -43t42 -18q52 0 99.5 19.5t94.5 63t68.5 67.5t65.5 79q7 8 10 12q4 6 8 6t4 -4q0 -2 -2 -6q-42 -57 -79 -98t-86.5 -83t-107 -64t-119.5 -22q-44 0 -69.5 20.5t-25.5 58.5q0 49 46 138q-48 -58 -99 -96q-117 -89 -349 -176
q-44 -89 -105 -202t-100 -182l-38 -68q-34 -64 -83.5 -126t-110 -117t-133 -88.5t-141.5 -33.5q-90 0 -155 56q-124 -112 -242 -112q-72 0 -127.5 64.5t-55.5 157.5q0 263 324 448q139 79 419 180q65 23 68 24q16 34 70.5 147t86.5 178q131 265 227 434q190 334 357 334
q52 0 78 -33t26 -60q0 -4 -0.5 -7t-1.5 -5t-3.5 -5.5t-4 -5.5t-5.5 -7t-7 -8q-7 -9 -16 -21.5t-13.5 -17.5t-7.5 -5t-3 3l3 6q3 6 3 17q0 41 -28.5 75t-72.5 34q-61 0 -119 -72.5t-135 -227.5q-61 -122 -224 -476q-68 -148 -114 -242q66 22 101.5 35t106.5 46.5t117 68.5
q62 48 136 140q215 446 264 532q98 171 181 247.5t166 76.5q13 0 24 -3q73 50 135 50q52 0 74 -33.5t22 -76.5q0 -40 -33.5 -118.5t-69.5 -145t-112 -198.5q-80 -139 -165 -301zM-733 -700q0 -89 44.5 -152t121.5 -63q82 0 171 96q-52 59 -52 136q0 69 27.5 130.5
t79.5 112.5t115 92.5t144 80.5q36 72 80 164q-25 -9 -77 -28q-243 -89 -353 -149q-251 -137 -292 -333q-9 -42 -9 -87z" />
    <glyph glyph-name=".notdef" horiz-adv-x="364" 
d="M33 0v666h265v-666h-265zM66 33h199v600h-199v-600z" />
    <glyph glyph-name=".null" horiz-adv-x="0" 
 />
    <glyph glyph-name="nonmarkingreturn" horiz-adv-x="333" 
 />
    <glyph glyph-name="endash" unicode="&#x2013;" horiz-adv-x="780" 
d="M526 350q47 0 106 0.5t100 1t44 0.5q5 0 5 -2q0 -1 -0.5 -2.5t-3.5 -7t-6 -12.5q-13 -30 -20 -30q-1 0 -114.5 3t-188.5 3q-57 0 -161 -1t-115 -1q-4 0 -4 2q0 1 1 2.5l5 7.5t9 14q15 26 22 26q26 0 140.5 -2t180.5 -2z" />
    <glyph glyph-name="uni032F" unicode="&#x32f;" 
d="M172 -9q44 0 62 -21.5t18 -52.5q0 -17 -10 -44q-3 -7 -20 -16.5t-26 -9.5l-2 2l2 7q3 6 5.5 16.5t2.5 20.5q0 33 -22.5 51.5t-55.5 18.5q-84 0 -144 -88q-13 -13 -30 -20q-15 -6 -18 -6h-2q0 8 34 41.5t93.5 67t112.5 33.5z" />
    <glyph glyph-name="u10144" unicode="&#x10144;" horiz-adv-x="1200" 
d="M867 364v63q0 63 -1 160.5t-1 101.5q0 3 -4 3q-1 0 -17 -12q-175 -140 -390 -340l1 -1q338 0 383 3q29 2 29 22zM376 296q-9 0 -9 7q0 8 37 38q53 43 437 370q26 22 59 35q26 11 32 11q10 0 10 -9q-4 -49 -4 -115q0 -49 2.5 -173.5t2.5 -132.5q0 -13 -11.5 -15t-62.5 -3
q-398 -5 -432 -5q-15 0 -29 -2t-22 -4t-10 -2zM989 829q-228 0 -388 9q-126 -213 -384 -731q-21 -44 -44 -64t-56 -33q-16 -6 -29.5 -12.5t-18.5 -8.5t-11 -2q-7 0 -7 5q0 2 3 6t12 14t19 24q67 96 130 212q3 5 55.5 100.5t82.5 152t74 140t66 133t22 62.5q0 12 -10.5 20
t-10.5 13q0 9 19 9q39 0 185 -4t233 -4q118 0 225.5 4t167.5 7.5t62 3.5q14 0 14 -7q0 -3 -6.5 -6t-19.5 -13.5t-24 -28.5q-49 -80 -163 -291q-70 -129 -108 -208q-5 -10 -33 -24q-5 -2 -10.5 -6t-8.5 -6t-5 -2q-5 0 -5 7q0 5 13 26.5t47 79.5t70 126q124 233 124 261
q0 18 -8 28.5t-34 10.5q-4 0 -32 -1t-83 -1.5t-125 -0.5z" />
    <glyph glyph-name="u10145" unicode="&#x10145;" horiz-adv-x="1200" 
d="M890 322q20 0 52 23q8 5 11 5q6 0 6 -5q0 -3 -10 -10q-2 -1 -14 -9.5t-16.5 -11t-15.5 -10t-17 -10.5t-16 -8.5t-17 -7.5t-14.5 -4t-14.5 -2q-29 0 -29 42q0 44 86 195q-18 7 -88 7q-146 0 -164 -10q-43 -70 -113 -200q-2 -4 -9.5 -5.5t-19 -3t-18.5 -3.5t-13.5 -4.5
t-9.5 -3.5t-6 -1q-4 0 -4 4q0 5 39 65q47 78 87 142q-2 9 -6.5 17t-4.5 11q0 7 5 7q2 0 10 -0.5t17 -0.5q26 44 32 56q38 74 38 101q0 39 -21 39q-8 0 -19 -4q-4 -2 -9 -5t-6 -3q-4 0 -4 5q0 4 16 13q22 12 57 12q22 0 35.5 -15t13.5 -41q0 -32 -47 -115q-2 -3 -7 -11
l-10 -16t-9 -16q11 0 46 -0.5t60 -0.5q104 0 146 3q34 60 115 190q4 6 40 12q11 2 20 4.5t14 4t6 1.5q8 0 8 -6q0 -3 -2 -5.5t-6 -6t-12 -13.5t-18 -23q-70 -97 -108 -164q-79 -138 -79 -187q0 -6 5 -11.5t12 -5.5zM989 829q-228 0 -388 9q-126 -213 -384 -731
q-21 -44 -44 -64t-56 -33q-16 -6 -29.5 -12.5t-18.5 -8.5t-11 -2q-7 0 -7 5q0 2 3 6t12 14t19 24q67 96 130 212q3 5 55.5 100.5t82.5 152t74 140t66 133t22 62.5q0 12 -10.5 20t-10.5 13q0 9 19 9q39 0 185 -4t233 -4q118 0 225.5 4t167.5 7.5t62 3.5q14 0 14 -7
q0 -3 -6.5 -6t-19.5 -13.5t-24 -28.5q-49 -80 -163 -291q-70 -129 -108 -208q-5 -10 -33 -24q-5 -2 -10.5 -6t-8.5 -6t-5 -2q-5 0 -5 7q0 5 13 26.5t47 79.5t70 126q124 233 124 261q0 18 -8 28.5t-34 10.5q-4 0 -32 -1t-83 -1.5t-125 -0.5z" />
    <glyph glyph-name="u10146" unicode="&#x10146;" horiz-adv-x="1200" 
d="M1090 713q-87 -43 -295 -185q7 -112 26 -182q8 -30 26.5 -49t41.5 -19q18 0 38 11q3 2 6 4.5t4.5 4t2.5 1.5q5 0 5 -5t-9.5 -13.5t-29 -16.5t-40.5 -8q-72 0 -106 65q-21 39 -29 170q-137 -96 -256 -188q-12 -9 -46 -16q-7 -1 -14 -3.5t-11 -2.5q-6 0 -6 4q0 1 1 3t3.5 4
t5 3.5t7 4.5t9 5.5t11.5 6.5t13 8q47 29 147.5 100t133.5 93q-8 94 -11 125q-8 69 -49 69q-23 0 -50 -18q-13 -10 -18 -10t-5 5t13 15q58 45 105 45q64 0 71 -80q7 -73 10 -111q78 53 234 156q31 20 58 25q16 3 44 3q10 0 10 -4q0 -5 -6 -5q-14 0 -45 -15zM989 829
q-228 0 -388 9q-126 -213 -384 -731q-21 -44 -44 -64t-56 -33q-16 -6 -29.5 -12.5t-18.5 -8.5t-11 -2q-7 0 -7 5q0 2 3 6t12 14t19 24q67 96 130 212q3 5 55.5 100.5t82.5 152t74 140t66 133t22 62.5q0 12 -10.5 20t-10.5 13q0 9 19 9q39 0 185 -4t233 -4q118 0 225.5 4
t167.5 7.5t62 3.5q14 0 14 -7q0 -3 -6.5 -6t-19.5 -13.5t-24 -28.5q-49 -80 -163 -291q-70 -129 -108 -208q-5 -10 -33 -24q-5 -2 -10.5 -6t-8.5 -6t-5 -2q-5 0 -5 7q0 5 13 26.5t47 79.5t70 126q124 233 124 261q0 18 -8 28.5t-34 10.5q-4 0 -32 -1t-83 -1.5t-125 -0.5z
" />
    <glyph glyph-name="u10147" unicode="&#x10147;" horiz-adv-x="1200" 
d="M591 732q23 12 45 12q27 0 40.5 -15.5t13.5 -37.5q0 -21 -8 -43q82 85 126 85q62 0 62 -72q56 51 89 70.5t69 19.5q25 0 42.5 -13.5t17.5 -44.5q0 -26 -25.5 -65.5t-56 -78t-56 -99t-25.5 -121.5q0 -78 34 -114.5t81 -36.5q53 0 94 51q13 16 14 16q3 0 3 -3
q0 -9 -16 -29.5t-50 -41.5t-73 -21q-61 0 -103 39t-42 108q0 50 16.5 98t40 85t47 70t40 64.5t16.5 56.5q0 37 -34 37q-56 0 -129 -76q-5 -13 -17 -30q-5 -7 -22 -17.5t-24 -10.5t-7 7q0 8 17 30q8 16 8 35q0 17 -10 30t-34 13q-42 0 -92 -80q-70 -114 -155 -272
q-5 -8 -10 -14t-12 -9.5t-11 -5t-12 -4t-10 -2.5q-24 -8 -34 -8q-4 0 -4 3q0 1 2 3l7 7t11 13q62 85 108 169q43 80 60 119t17 70q0 48 -27 48q-8 0 -19 -4q-4 -2 -9 -5t-6 -3q-4 0 -4 5q0 4 16 13zM989 829q-228 0 -388 9q-126 -213 -384 -731q-21 -44 -44 -64t-56 -33
q-16 -6 -29.5 -12.5t-18.5 -8.5t-11 -2q-7 0 -7 5q0 2 3 6t12 14t19 24q67 96 130 212q3 5 55.5 100.5t82.5 152t74 140t66 133t22 62.5q0 12 -10.5 20t-10.5 13q0 9 19 9q39 0 185 -4t233 -4q118 0 225.5 4t167.5 7.5t62 3.5q14 0 14 -7q0 -3 -6.5 -6t-19.5 -13.5
t-24 -28.5q-49 -80 -163 -291q-70 -129 -108 -208q-5 -10 -33 -24q-5 -2 -10.5 -6t-8.5 -6t-5 -2q-5 0 -5 7q0 5 13 26.5t47 79.5t70 126q124 233 124 261q0 18 -8 28.5t-34 10.5q-4 0 -32 -1t-83 -1.5t-125 -0.5z" />
    <glyph glyph-name="uni03DB" unicode="&#x3db;" horiz-adv-x="560" 
d="M381 406q-81 0 -147 -73t-66 -151q0 -30 22 -54.5t49 -38.5t49 -37t22 -52q0 -48 -76 -95t-132 -47q-21 0 -38.5 8t-25 16.5t-7.5 12.5q0 3 1.5 5.5t4 4t8 4.5t10.5 7q7 5 15 12.5t12.5 12.5t6.5 5q4 0 4 -8q0 -14 22 -27t47 -13q13 0 29 3t35.5 19t19.5 42
q0 27 -23.5 51t-51.5 39.5t-51.5 42.5t-23.5 59q0 57 36.5 113.5t88.5 95.5t108.5 63.5t97.5 24.5q36 0 75 -6.5t64 -6.5q34 0 62 15q4 2 7.5 4.5t6 4t3.5 1.5l2 -2q0 -7 -16.5 -23.5t-48.5 -33t-65 -16.5q-22 0 -64 9t-72 9z" />
    <glyph glyph-name="uniE009" unicode="&#xe009;" horiz-adv-x="500" 
d="M331 406q-52 0 -85.5 -23t-33.5 -75q0 -30 22 -53t49 -35.5t49 -36t22 -54.5q0 -48 -76.5 -95t-132.5 -47q-21 0 -38.5 8t-25 16.5t-7.5 12.5q0 3 1.5 5.5t4 4t8 5t10.5 6.5q7 5 15 12.5t12.5 12.5t6.5 5q4 0 4 -8q0 -14 22 -27t47 -13q13 0 29 3t35.5 19t19.5 42
q0 23 -15 41t-37 30t-44 25t-37 33t-15 46q0 61 81 123t152 62q36 0 71.5 -6.5t60.5 -6.5q34 0 62 15q4 2 7.5 4.5t6 4t3.5 1.5l2 -2q0 -7 -16.5 -23.5t-48.5 -33t-65 -16.5q-21 0 -58 9t-68 9z" />
    <glyph glyph-name="uni1FBE" unicode="&#x1fbe;" horiz-adv-x="290" 
d="M210 -340q-54 -31 -97 -31q-22 0 -36.5 11.5t-14.5 33.5q0 32 46 104.5t46 85.5q0 15 -13 15q-15 0 -42 -15l-8 -4q-4 0 -4 4t7 7q46 31 79 31q16 0 26.5 -12t10.5 -27q0 -25 -42.5 -90t-42.5 -89q0 -33 29 -33q21 0 51 16l8 4q4 0 4 -4q0 -3 -7 -7z" />
    <glyph glyph-name="uni1FBC" unicode="&#x1fbc;" horiz-adv-x="980" 
d="M408 -342q-54 -31 -97 -31q-22 0 -36.5 11.5t-14.5 33.5q0 32 46 104.5t46 85.5q0 15 -13 15q-15 0 -42 -15l-8 -4q-4 0 -4 4t7 7q46 31 79 31q16 0 26.5 -12t10.5 -27q0 -25 -42.5 -90t-42.5 -89q0 -33 29 -33q21 0 51 16l8 4q4 0 4 -4q0 -3 -7 -7zM1020 98
q-24 -20 -53.5 -39.5t-83.5 -43t-97 -23.5q-58 0 -77 37.5t-19 124.5q0 58 12 142q-90 -10 -120 -10q-41 0 -107 11t-83 11q-14 0 -20 -2q-192 -219 -270 -284q-29 -22 -86 -28q-5 -1 -15.5 -3t-20 -3t-18.5 -1q-12 0 -12 7q0 6 16 10q30 10 64 40q151 132 315 297.5
t401 442.5q16 18 26.5 30.5t21.5 22.5t16 14.5t15.5 10.5t13.5 7.5t17 7t20 7.5q3 1 20.5 9.5t23.5 8.5q8 0 8 -10q0 -8 -4.5 -20.5t-10.5 -26t-7 -15.5q-29 -74 -63 -220.5t-51 -277.5q31 9 65 28t55 33.5t24 14.5q6 0 6 -6q0 -5 -22 -21t-59 -35.5t-71 -31.5
q-10 -87 -10 -136q0 -83 15.5 -116t45.5 -33t78.5 23t92.5 56q62 48 136 140q4 6 8 6t4 -4q0 -2 -2 -6q-68 -92 -138 -146zM404 342h34q40 0 117 -12t111 -12q24 0 40 2q7 58 20 128.5t26.5 130t25.5 110.5t20 81.5t8 31.5q0 6 -3 6q-7 0 -33 -32z" />
    <glyph glyph-name="uni1FCC" unicode="&#x1fcc;" horiz-adv-x="1025" 
d="M469 -342q-54 -31 -97 -31q-22 0 -36.5 11.5t-14.5 33.5q0 32 46 104.5t46 85.5q0 15 -13 15q-15 0 -42 -15l-8 -4q-4 0 -4 4t7 7q47 31 79 31q16 0 26.5 -12t10.5 -27q0 -25 -42.5 -90t-42.5 -89q0 -33 29 -33q21 0 51 16l8 4q4 0 4 -4q0 -3 -7 -7zM386 409
q0 -1 -1.5 -3.5t-2.5 -3.5q-190 -367 -202 -392q-4 -7 -15.5 -10.5t-33 -5.5t-30.5 -4q-16 -3 -25.5 -11.5t-13.5 -8.5t-4 6t71 130q91 158 163 285q-3 19 -8.5 36.5t-5.5 22.5q0 10 6 10q22 0 46 -1q45 84 57 110q74 155 74 224q0 53 -50 53q-73 0 -137 -64
q-20 -20 -22 -20q-6 0 -6 6t22 28q44 46 97 68t89 22q39 0 67 -25.5t28 -69.5q0 -73 -91 -247q-6 -12 -47 -87q43 -1 172 -1q171 1 239 7q29 55 209 379q4 6 11 10t12.5 5.5t19.5 3.5t22 3q18 3 34.5 9t25 9.5t11.5 3.5q6 0 6 -6q0 -2 -2 -3.5t-7 -6t-11.5 -11.5t-18 -21.5
t-23.5 -33.5q-139 -210 -211 -355q-44 -87 -68 -137t-47.5 -113.5t-23.5 -95.5q0 -37 20.5 -58t55.5 -21q42 0 105.5 22.5t114.5 61.5q62 48 136 140q4 6 8 6t4 -4q0 -2 -2 -6q-68 -92 -138 -146q-163 -122 -300 -122q-51 0 -78 30t-27 78q0 17 3.5 36t12.5 43t16.5 43
t23 50.5t24.5 49.5t28.5 55.5t28.5 54.5q-27 13 -143 13q-233 0 -268 -20z" />
    <glyph glyph-name="uni1FFC" unicode="&#x1ffc;" horiz-adv-x="1084" 
d="M529 -342q-54 -31 -97 -31q-22 0 -36.5 11.5t-14.5 33.5q0 32 46 104.5t46 85.5q0 15 -13 15q-15 0 -42 -15l-8 -4q-4 0 -4 4t7 7q47 31 79 31q16 0 26.5 -12t10.5 -27q0 -25 -42.5 -90t-42.5 -89q0 -33 29 -33q21 0 51 16l8 4q4 0 4 -4q0 -3 -7 -7zM264 29
q-36 46 -65 117t-29 151q0 75 30 156.5t88 158t134.5 138.5t178.5 99t212 37q52 0 102.5 -17.5t94 -51t70.5 -89.5t27 -125q0 -98 -42 -194t-157 -217q-22 -23 -48 -46t-61 -51.5t-54 -44.5q34 -5 70 -12t61.5 -10t64.5 -3q55 0 69 8q5 3 9 8t7 5t3 -4q0 -5 -3.5 -10.5
t-15.5 -19.5t-18 -22q-14 -18 -31 -24t-48 -6q-55 0 -127 17.5t-103 17.5q-26 -29 -56 -29q-8 0 -8 12q1 11 7.5 18t25.5 17.5t29 17.5q12 9 40.5 31.5t44 35.5t38.5 33.5t41.5 40t34.5 40.5q127 164 127 358q0 125 -71.5 195.5t-171.5 70.5q-102 0 -187.5 -33.5t-142 -86.5
t-96 -121.5t-57 -137t-17.5 -133.5q0 -94 29 -163t78 -134q17 -21 17 -26q0 -10 -18 -10q-8 0 -28 1.5t-27 1.5q-70 0 -132.5 -9t-97.5 -9q-47 0 -56 27l-16 48q0 5 4 5q2 0 3 -2.5t4 -7.5t8 -8q22 -16 53 -16q26 0 61 4t45 4z" />
    <glyph glyph-name="uniE00A" unicode="&#xe00a;" horiz-adv-x="980" 
d="M1020 98q-24 -20 -53.5 -39.5t-83.5 -43t-97 -23.5q-58 0 -77 37.5t-19 124.5q0 58 12 142q-90 -10 -120 -10q-41 0 -107 11t-83 11q-14 0 -20 -2q-192 -219 -270 -284q-29 -22 -86 -28q-5 -1 -15.5 -3t-20 -3t-18.5 -1q-12 0 -12 7q0 6 16 10q30 10 64 40
q151 132 315 297.5t401 442.5q16 18 26.5 30.5t21.5 22.5t16 14.5t15.5 10.5t13.5 7.5t17 7t20 7.5q3 1 20.5 9.5t23.5 8.5q8 0 8 -10q0 -8 -4.5 -20.5t-10.5 -26t-7 -15.5q-29 -74 -63 -220.5t-51 -277.5q31 9 65 28t55 33.5t24 14.5q6 0 6 -6q0 -5 -22 -21t-59 -35.5
t-71 -31.5q-10 -87 -10 -136q0 -83 15.5 -116t45.5 -33t78.5 23t92.5 56q62 48 136 140q4 6 8 6t4 -4q0 -2 -2 -6q-68 -92 -138 -146zM404 342h34q40 0 117 -12t111 -12q24 0 40 2q7 58 20 128.5t26.5 130t25.5 110.5t20 81.5t8 31.5q0 6 -3 6q-7 0 -33 -32z" />
    <glyph glyph-name="uniE00B" unicode="&#xe00b;" horiz-adv-x="665" 
d="M449 432q-39 -54 -131 -234.5t-97 -187.5q-7 -10 -19.5 -12.5t-37 -5.5t-45.5 -10q-12 -4 -19.5 -9t-11.5 -5q-12 0 -12 6q0 2 8 11.5t21 25.5t22 29q166 250 238 413q44 99 44 211q0 70 -48.5 125t-114.5 55q-28 0 -69.5 -15.5t-72.5 -46.5q-20 -20 -22 -20q-6 0 -6 6
t22 28q46 47 97 68.5t93 21.5q96 0 150 -59t54 -142q0 -78 -25 -164h1q137 135 227.5 203t232.5 133q70 32 133 32q27 0 50 -12t23 -23q0 -4 -3 -4l-3 2q-4 2 -10 2q-34 0 -118 -20q-164 -39 -296.5 -135.5t-254.5 -266.5zM635 1112q18 0 30 -11.5t12 -26.5q0 -24 -19 -42
t-41 -18q-33 0 -33 44q0 19 15 36.5t36 17.5zM830 1107q34 0 34 -37q0 -24 -16 -40.5t-38 -16.5q-33 0 -33 42q0 18 16.5 35t36.5 17z" />
    <glyph glyph-name="uniE00C" unicode="&#xe00c;" horiz-adv-x="658" 
d="M380 139q10 35 29 86.5t30 86t11 53.5q0 65 -57 65q-63 0 -124 -61t-95 -135.5t-34 -125.5q0 -36 14.5 -54.5t49.5 -18.5q33 0 73.5 24t102.5 80zM698 98q-144 -113 -254 -113q-77 0 -77 74q0 10 9 52q-118 -115 -226 -115q-43 0 -68 28.5t-25 75.5q0 67 59 150.5
t146 142t159 58.5q51 0 77 -20.5t26 -52.5q0 -19 -8.5 -44t-26.5 -62.5t-22 -47.5q35 42 78.5 91t50.5 58q26 30 50 38q29 10 38 10l2 -2q0 -2 -1 -3t-6 -3.5t-10 -6.5q-13 -10 -45 -42q-65 -67 -170 -182q-16 -60 -16 -92q0 -34 14 -49t54 -15q35 0 87 24t97 58
q62 48 136 140q4 6 8 6t4 -4q0 -2 -2 -6q-68 -92 -138 -146z" />
    <glyph glyph-name="uniE00D" unicode="&#xe00d;" horiz-adv-x="532" 
d="M147 460q58 0 58 -64q0 -30 -28.5 -77t-57.5 -101t-29 -101q0 -51 29.5 -77t72.5 -26q59 0 104 29.5t69.5 79t36.5 105t12 116.5q0 26 -8 42t-8 29q0 4 2 7t6.5 6.5t7.5 5.5t9.5 5t8.5 4q6 4 14 10t13.5 9.5t8.5 3.5q8 0 8 -9q0 -7 -1 -17.5t-1 -21.5q0 -19 17.5 -37.5
t46.5 -18.5q60 0 120 42q9 6 10 6q4 0 4 -4t-6 -8q-27 -19 -69.5 -38.5t-72.5 -19.5q-13 0 -23.5 1.5t-14.5 2.5l-4 2q0 -150 -99 -258t-239 -108q-39 0 -66.5 14.5t-40 37t-18 42.5t-5.5 38q0 61 44 136q8 13 25 40t26 41.5t17 33.5t8 31q0 38 -25 38q-14 0 -65 -34
q-9 -6 -10 -6q-4 0 -4 4t6 8q75 56 111 56zM294 692q18 0 30 -11.5t12 -26.5q0 -24 -19 -42t-41 -18q-33 0 -33 44q0 19 15 36.5t36 17.5zM489 687q34 0 34 -37q0 -24 -16 -40.5t-38 -16.5q-33 0 -33 42q0 18 16.5 35t36.5 17z" />
    <glyph glyph-name="uni02CF" unicode="&#x2cf;" horiz-adv-x="246" 
d="M17 -213l186 189q24 24 28 24t9.5 -11t5.5 -16q0 -12 -10 -19l-211 -180q-13 -13 -20 -13q-5 0 -5 5q0 4 17 21z" />
    <glyph glyph-name="uni02CE" unicode="&#x2ce;" horiz-adv-x="79" 
d="M79 -237q0 -5 -8 -5q-6 0 -11 14l-50 154q-10 27 -10 42q0 8 8 20t16 12q9 0 12 -15l39 -199q4 -20 4 -23z" />
    <glyph glyph-name="uni03DF" unicode="&#x3df;" horiz-adv-x="620" 
d="M500 691q0 -27 -13.5 -55.5t-44.5 -65.5t-62.5 -69t-88 -90t-100.5 -106q56 12 196 35t204 41q3 1 6.5 2t5.5 2t3 1q3 0 3 -3q0 -19 -7 -26q-172 -204 -303 -389q-17 -26 -56 -31q-15 -2 -31.5 -8.5t-26.5 -11.5t-12 -5q-4 0 -4 4q0 2 19 24q146 162 340 368
q-289 -44 -399 -71q-5 -1 -13.5 -4t-15 -5.5t-8.5 -2.5q-4 0 -4 3q0 11 17 28q19 20 54.5 57t54.5 57t49.5 53t48 53t41 47t36.5 44.5t25.5 36.5t18 33.5t5.5 24.5q0 22 -9 34.5t-22 12.5q-18 0 -33 -8q-7 -4 -13 -10t-10 -9.5t-7 -3.5q-5 0 -5 6t28 25q52 32 81 32
q23 0 37.5 -13.5t14.5 -36.5z" />
    <glyph glyph-name="uni03D9" unicode="&#x3d9;" horiz-adv-x="560" 
d="M414 451q57 0 90.5 -36t33.5 -96q0 -123 -99.5 -221t-215.5 -112q-49 -114 -117 -249q-25 -48 -38 -61t-54 -25q-19 -6 -41 -13.5t-34.5 -12t-14.5 -4.5q-10 0 -10 6q0 4 5 6t18.5 8t27.5 18q14 11 37 39t71.5 104.5t104.5 182.5q-50 5 -81 40.5t-31 87.5q0 82 55.5 162
t136.5 128t156 48zM385 429q-53 0 -108 -48t-90.5 -119.5t-35.5 -137.5q0 -49 21 -81.5t53 -32.5q81 0 156.5 102.5t75.5 205.5q0 49 -19.5 80t-52.5 31z" />
    <glyph glyph-name="uni032E" unicode="&#x32e;" 
d="M67 -147q-44 0 -62 21.5t-18 52.5q0 17 10 44q3 7 20 16.5t26 9.5l2 -2l-3 -7q-2 -6 -4.5 -16.5t-2.5 -20.5q0 -33 22.5 -51.5t55.5 -18.5q84 0 144 88q13 13 30 20q15 6 18 6h2q0 -8 -34 -41.5t-93.5 -67t-112.5 -33.5z" />
    <glyph glyph-name="uni03D8" unicode="&#x3d8;" horiz-adv-x="700" 
d="M599 856q-73 0 -148 -56t-124.5 -148t-49.5 -188q0 -76 42 -126t90 -50q76 0 152 53t124.5 140.5t48.5 180.5q0 85 -35 139.5t-100 54.5zM638 886q88 0 138 -60t50 -146q0 -66 -24.5 -129t-66.5 -112t-95.5 -89t-112.5 -64.5t-117 -32.5q-26 -60 -56 -134t-32 -79
q-6 -14 -10.5 -20.5t-17.5 -13t-36 -10.5q-16 -3 -29 -8t-19.5 -8.5t-8.5 -3.5q-6 0 -6 6q0 2 4 9t14 23t20 34q73 140 106 207q-68 9 -112 61t-44 131q0 112 71 215.5t176.5 163.5t207.5 60z" />
    <glyph glyph-name="uniE00E" unicode="&#xe00e;" horiz-adv-x="1075" 
d="M524 59q59 87 114 189q239 438 305 588q-92 10 -236 10q-110 0 -201.5 -55.5t-157.5 -148.5q-145 -199 -145 -380q0 -108 58 -175.5t168 -67.5q67 0 95 40zM547 0q-25 -3 -58.5 -9t-60 -9.5t-55.5 -3.5q-133 0 -202 71t-69 185q0 117 64 237t139 202q78 91 198.5 152
t224.5 61q85 0 264.5 -11.5t269.5 -11.5q68 0 109 16.5t46 41.5q3 18 10 18q8 0 8 -9q0 -35 -69.5 -75t-151.5 -40q-89 0 -181 11q-76 -132 -214 -392q-107 -201 -192 -373q-14 -29 -26 -41t-20 -14.5t-34 -5.5z" />
    <glyph glyph-name="uni03E0" unicode="&#x3e0;" horiz-adv-x="950" 
d="M931 430q0 -149 -71 -325q-19 -49 -37 -71.5t-58 -48.5q-4 -3 -10 -8t-10 -8t-6 -3q-3 0 -3 3q0 1 4 8.5t9.5 17t7.5 14.5q21 42 41 96q63 167 63 301q0 75 -18 137q-85 -75 -167 -192.5t-146 -263.5q-20 -46 -32 -56.5t-61 -29.5q-8 -4 -14.5 -8t-9.5 -6.5t-6 -4.5
t-5 -2q-8 0 -8 7q0 1 23 46q215 413 395 540q8 6 18 8q-55 150 -195 224q-191 -280 -410 -704q-32 -63 -46 -76q-4 -4 -8 -7t-57 -18q-15 -5 -26 -9.5t-15 -7t-7 -2.5q-9 0 -9 5q0 1 4 4.5t13 14.5t19 28q44 73 120.5 200t122.5 203.5t112.5 185t128.5 206.5h1l1 1
q-67 24 -137 24q-48 0 -97 -19.5t-81 -51.5q-20 -20 -22 -20q-6 0 -6 6t22 28q89 89 237 89q200 0 318 -126.5t118 -328.5z" />
    <glyph glyph-name="Euro" unicode="&#x20ac;" horiz-adv-x="946" 
d="M344 551q118 158 292 259q132 76 270 76q31 0 57 -7t41.5 -17t26.5 -21.5t15 -20t4 -12.5q0 -9 -22.5 -28.5t-27.5 -35.5q-3 -10 -8 -10q-6 0 -6 10q-8 37 -50.5 67.5t-93.5 30.5q-100 0 -192 -54q-145 -96 -235 -238h77q67 0 209.5 1t148.5 1t6 -6q0 -15 -16 -22.5
t-34 -7.5q-30 0 -176 3.5t-230 4.5q-30 -52 -52 -111q107 0 268 1t166 1q8 0 8 -6q0 -3 -2 -4t-6.5 -3.5t-7.5 -5.5q-14 -14 -28 -14q-6 0 -127.5 4t-180.5 4l-98 -1q-28 -87 -28 -169q0 -91 57.5 -151.5t144.5 -60.5q50 0 95 13.5t77.5 32.5t67.5 52t56.5 58.5t51.5 65.5
q5 8 10 8q6 0 6 -30q0 -49 -10 -64q-61 -78 -159.5 -123t-228.5 -45q-116 0 -192 64t-76 172q0 85 38 176h-45q-26 0 -62 -1.5t-43 -1.5q-10 0 -10 6t16 16t25 10t36 -1.5t48 -1.5l46 -1q29 62 63 110l-51 -1q-14 0 -50 -2t-53 -2q-8 0 -8 4q0 2 1.5 3t5 3t5.5 4
q4 4 7.5 9.5t5.5 8t7 4.5t14 2q2 0 82 -4z" />
    <glyph glyph-name="perthousand" unicode="&#x2030;" horiz-adv-x="1286" 
d="M877 725q10 12 16 12q3 0 14 -6t11 -8t-22 -21q-91 -84 -294 -270.5t-286 -261.5q-15 -14 -17 -14q-4 0 -14 6t-10 8q0 3 13 13q379 329 589 542zM573 875q48 0 74.5 -29.5t26.5 -77.5q0 -97 -74.5 -169t-156.5 -72q-48 0 -74 29t-26 81q0 96 76.5 167t153.5 71zM396 654
q0 -43 22 -67.5t62 -24.5q63 0 99 60t36 126q0 98 -82 98q-61 0 -99 -62.5t-38 -129.5zM755 326q48 0 74.5 -29.5t26.5 -77.5q0 -97 -74.5 -169t-156.5 -72q-48 0 -74 29t-26 81q0 96 76.5 167t153.5 71zM578 106q0 -43 22.5 -68t61.5 -25q63 0 99 60t36 126
q0 45 -20.5 71.5t-62.5 26.5q-61 0 -98.5 -62t-37.5 -129zM1155 326q48 0 74.5 -29.5t26.5 -77.5q0 -97 -74.5 -169t-156.5 -72q-48 0 -74 29t-26 81q0 96 76.5 167t153.5 71zM978 106q0 -43 22.5 -68t61.5 -25q63 0 99 60t36 126q0 45 -20.5 71.5t-62.5 26.5
q-61 0 -98.5 -62t-37.5 -129z" />
    <glyph glyph-name="uni0259" unicode="&#x259;" horiz-adv-x="565" 
d="M411 183q-198 -48 -198 -144q0 -11 6.5 -19.5t19.5 -8.5q42 0 88 49t84 123zM386 412q-23 0 -49 -12.5t-44 -26t-44.5 -43.5t-36.5 -42t-34 -44q-4 -6 -8 -6t-4 4q0 2 2 6q1 1 23 30.5t27 35.5t27 32t32.5 34.5t32.5 26.5t39 24.5t39.5 13t45.5 6.5q44 0 71.5 -30.5
t27.5 -88.5q0 -53 -25.5 -106.5t-65 -95.5t-85.5 -76t-89.5 -52t-74.5 -18q-21 0 -36.5 13.5t-15.5 36.5q0 9 8 24.5t28.5 36.5t50.5 41t80.5 39t111.5 29q34 68 34 125q0 46 -17 64.5t-51 18.5z" />
    <glyph glyph-name="uni03E1" unicode="&#x3e1;" horiz-adv-x="908" 
d="M181 1118q-40 0 -95 -15t-90 -43q-16 -13 -19 -13q-5 0 -5 5q0 3 19 19q89 70 222 70q124 0 250 -71.5t226 -211.5q81 -114 121.5 -269.5t40.5 -327.5q0 -134 -29 -255.5t-83 -208.5q-10 -16 -14.5 -21.5t-13.5 -11.5t-27 -14t-21 -8t-3 2l4 6q5 7 12 18.5t13 20.5
q102 178 102 453q0 108 -18 215q-64 -35 -196 -128q-117 -82 -214 -172q-14 -13 -26.5 -29t-19.5 -24.5t-9 -8.5q-5 0 -5 5q0 1 1 3.5t4 11.5t6 21q3 11 5 29.5t5.5 32t11.5 21.5l7.5 7.5t10 8t12 7.5t18 10.5t21.5 13.5q177 108 358 240q-39 176 -119 299
q-80 -43 -175 -110q-131 -92 -214 -169q-14 -13 -26 -28.5t-18 -23.5t-8 -8q-5 0 -5 5q0 4 9 37q3 11 5.5 29.5t6 31.5t9.5 21q5 7 12 11.5t24.5 14.5t32.5 19q20 12 95.5 58t125 77.5t102.5 68.5q-97 139 -212 209t-227 70z" />
    <glyph glyph-name="quoteleft" unicode="&#x2018;" horiz-adv-x="340" 
d="M362 592q0 -20 5 -36.5t12 -26t14 -16t12 -9.5t5 -4l-32 -20q-29 -18 -34 -18t-15 12t-19.5 34.5t-9.5 45.5q0 65 38 136.5t112 135.5q30 26 58.5 43t39.5 17q4 0 4 -2t-8 -5.5t-30.5 -19.5t-49.5 -43q-102 -102 -102 -224z" />
    <glyph glyph-name="quoteright" unicode="&#x2019;" horiz-adv-x="374" 
d="M409 756q0 26 -9.5 47t-19.5 31.5t-10 13.5q0 7 26 23q19 12 34 12q5 0 15 -11.5t19.5 -33t9.5 -44.5q0 -65 -38 -136.5t-112 -135.5q-30 -26 -58.5 -43t-39.5 -17q-4 0 -4 2t8 5.5t30.5 19.5t49.5 43q99 99 99 224z" />
    <glyph glyph-name="breve" unicode="&#x2d8;" 
d="M240 580q-44 0 -62 21.5t-18 52.5q0 17 10 44q3 7 20 16.5t26 9.5l2 -2l-2 -6q-3 -7 -5.5 -17.5t-2.5 -20.5q0 -33 22.5 -51.5t55.5 -18.5q84 0 144 88q13 12 30 20q15 6 18 6h2q0 -8 -34 -41.5t-93.5 -67t-112.5 -33.5z" />
    <glyph glyph-name="macron" unicode="&#xaf;" horiz-adv-x="330" 
d="M234 672q17 0 50.5 -1t51.5 -1q46 0 123.5 1t98.5 1q16 0 16 -12q0 -18 -38 -18q-13 0 -44.5 1t-57.5 1q-16 0 -84 -1t-110 -1q-14 0 -14 18q0 12 8 12z" />
    <glyph glyph-name="uni1FC1" unicode="&#x1fc1;" 
d="M389 870q27 0 48 -20t40 -39.5t41 -19.5q38 0 76 55q10 14 18 17q10 3 14 3l2 -1q0 -4 -17.5 -25t-55 -44.5t-77.5 -23.5q-24 0 -44 19t-39 38t-40 19q-12 0 -23.5 -3.5t-18.5 -6.5t-18 -12.5t-15 -13t-16.5 -17.5t-14.5 -16q-4 -4 -12 -7q-9 -4 -11 -4t-2 2q0 7 42 43
q67 57 123 57zM256 692q18 0 30 -11.5t12 -26.5q0 -24 -19 -42t-41 -18q-33 0 -33 44q0 19 15 36.5t36 17.5zM451 687q34 0 34 -37q0 -24 -16 -40.5t-38 -16.5q-33 0 -33 42q0 18 16.5 35t36.5 17z" />
    <glyph glyph-name="exclam" unicode="!" horiz-adv-x="434" 
d="M291 213q-2 -9 -15 -16.5t-24 -7.5q-14 0 -14 17q0 12 15 49q97 238 240 458q40 60 61 83q18 18 49 18q15 0 48 -9.5t33 -17.5q0 -4 -4 -4l-4 1q-4 2 -9 2q-51 0 -139 -111q-185 -235 -237 -462zM157 36q0 28 25.5 51.5t56.5 23.5q16 0 26.5 -13t10.5 -31q0 -29 -29 -51
t-53 -22q-18 0 -27.5 11.5t-9.5 30.5z" />
    <glyph glyph-name="dieresis" unicode="&#xa8;" 
d="M256 692q18 0 30 -11.5t12 -26.5q0 -24 -19 -42t-41 -18q-33 0 -33 44q0 19 15 36.5t36 17.5zM451 687q34 0 34 -37q0 -24 -16 -40.5t-38 -16.5q-33 0 -33 42q0 18 16.5 35t36.5 17z" />
    <glyph glyph-name="dieresistonos" unicode="&#x385;" 
d="M256 692q18 0 30 -11.5t12 -26.5q0 -24 -19 -42t-41 -18q-33 0 -33 44q0 19 15 36.5t36 17.5zM451 687q34 0 34 -37q0 -24 -16 -40.5t-38 -16.5q-33 0 -33 42q0 18 16.5 35t36.5 17zM353 785l186 189q24 24 28 24t9.5 -11t5.5 -16q0 -12 -10 -19l-211 -180
q-13 -13 -20 -13q-5 0 -5 5q0 4 17 21z" />
    <glyph glyph-name="uni1FED" unicode="&#x1fed;" 
d="M385 757q0 -5 -8 -5q-6 0 -11 14l-50 154q-10 27 -10 42q0 8 8 20t16 12q9 0 12 -15l39 -199q4 -20 4 -23zM256 692q18 0 30 -11.5t12 -26.5q0 -24 -19 -42t-41 -18q-33 0 -33 44q0 19 15 36.5t36 17.5zM451 687q34 0 34 -37q0 -24 -16 -40.5t-38 -16.5q-33 0 -33 42
q0 18 16.5 35t36.5 17z" />
    <glyph glyph-name="percent" unicode="%" horiz-adv-x="886" 
d="M877 725q10 12 16 12q3 0 14 -6t11 -8t-22 -21q-91 -84 -294 -270.5t-286 -261.5q-15 -14 -17 -14q-4 0 -14 6t-10 8q0 3 13 13q379 329 589 542zM573 875q48 0 74.5 -29.5t26.5 -77.5q0 -97 -74.5 -169t-156.5 -72q-48 0 -74 29t-26 81q0 96 76.5 167t153.5 71zM396 654
q0 -43 22 -67.5t62 -24.5q63 0 99 60t36 126q0 98 -82 98q-61 0 -99 -62.5t-38 -129.5zM755 326q48 0 74.5 -29.5t26.5 -77.5q0 -97 -74.5 -169t-156.5 -72q-48 0 -74 29t-26 81q0 96 76.5 167t153.5 71zM578 106q0 -43 22.5 -68t61.5 -25q63 0 99 60t36 126
q0 45 -20.5 71.5t-62.5 26.5q-61 0 -98.5 -62t-37.5 -129z" />
    <glyph glyph-name="periodcentered" unicode="&#xb7;" horiz-adv-x="438" 
d="M334 327q-18 0 -32 12t-14 27q0 23 17.5 41.5t39.5 18.5q17 0 29.5 -11t12.5 -29q0 -19 -16 -39t-37 -20z" />
    <glyph glyph-name="tonos" unicode="&#x384;" 
d="M290 573l186 189q24 24 28 24t9.5 -11t5.5 -16q0 -12 -10 -19l-211 -180q-13 -13 -20 -13q-5 0 -5 5q0 4 17 21z" />
    <glyph glyph-name="parenleft" unicode="(" horiz-adv-x="482" 
d="M306 -122q-55 46 -81.5 125.5t-26.5 146.5q0 95 24 192.5t76.5 195.5t128 183.5t185 160t241.5 122.5q26 10 39 10q6 0 6 -6q0 -3 -4.5 -5.5t-16.5 -7t-18 -7.5q-140 -65 -248 -155t-170 -180t-101.5 -191t-52.5 -180t-13 -156q0 -164 49 -237q5 -8 11 -14t9 -8.5t3 -4.5
q0 -4 -4 -4q-13 0 -36 20z" />
    <glyph glyph-name="parenright" unicode=")" horiz-adv-x="482" 
d="M520 994q55 -46 81.5 -125.5t26.5 -146.5q0 -95 -24 -192.5t-76.5 -195.5t-128 -183.5t-185 -160t-241.5 -122.5q-26 -10 -39 -10q-6 0 -6 6q0 3 4.5 5.5t16.5 7t18 7.5q140 65 248 155t170 180t101.5 191t52.5 180t13 156q0 163 -49 237q-5 8 -11 14t-9 8.5t-3 4.5
q0 4 4 4q13 0 36 -20z" />
    <glyph glyph-name="asterisk" unicode="*" horiz-adv-x="430" 
d="M364 540q-4 3 -17 11t-17 11q0 -48 8 -48q10 0 26 26zM472 706q22 37 44.5 81.5t32.5 61.5t19 17q6 0 14 -15t8 -23q0 -4 -2 -6q-35 -46 -96 -142q36 3 85.5 7.5t81.5 7.5t33 3q3 0 5.5 -3.5t2.5 -4.5q0 -3 -4 -7.5t-10 -11.5t-9 -13q-17 -28 -39 -28q-7 0 -50.5 4.5
t-81.5 6.5q68 -115 92 -151q2 -4 2 -8q0 -10 -10 -19t-20 -13l-10 -4q-45 0 -168 74q-5 -8 -13.5 -25.5t-15 -28t-11.5 -10.5q-7 0 -14.5 4t-15.5 21.5t-8 46.5q0 5 1 21t1 21q-40 26 -70 53t-30 37q0 12 14.5 23t39.5 11q9 0 27.5 -2.5t24.5 -3.5q1 16 2 40.5t1.5 39.5
t2.5 34t4.5 30.5t7 22.5t11.5 16t17 5q5 0 11 -6t15 -21.5t18 -33t26 -49t34 -60.5zM426 680q-10 17 -23 39.5t-20.5 35t-15.5 25.5t-13 18.5t-8 5.5q-7 0 -12 -118zM450 624q-30 -48 -52 -92q37 -26 74 -44t46 -18q6 0 6 8q0 15 -12.5 40t-33.5 58.5t-28 47.5zM436 644
l-106 2v-66q6 -5 13 -10t15.5 -11t13.5 -9q36 48 64 94zM318 586l2 60q-36 2 -46 2q-8 0 -8 -6q0 -17 52 -56z" />
    <glyph glyph-name="plus" unicode="+" horiz-adv-x="800" 
d="M508 347q231 3 254 3q4 0 4 -2t-9 -22q-1 -2 -3 -6.5t-3 -6.5q-3 -13 -7 -13h-1q-7 0 -47.5 1t-102 2.5t-107.5 2.5q-33 -64 -58 -112.5t-41 -80t-20 -39.5q-3 -5 -34 -12q-10 -2 -20.5 -4.5t-15.5 -4t-7 -1.5q-3 0 -3 2q0 1 1.5 2.5t3.5 4t3 4.5q25 35 135 242
q-10 1 -15 1q-35 0 -88.5 -1t-91.5 -2t-43 -1q-4 0 -4 2t3 6q5 7 13 20q2 4 4.5 8.5t3.5 6.5t2.5 4t2.5 2.5t3 0.5q13 0 49.5 -1t89 -2.5t93.5 -2.5q40 76 113 230q1 2 3.5 3.5t7 2.5t9.5 1.5t14 2t17 2.5t16.5 3.5t10.5 2.5q3 0 3 -3q0 -1 -22 -36q-30 -44 -116 -210z" />
    <glyph glyph-name="comma" unicode="," horiz-adv-x="320" 
d="M160 84q40 0 40 -88q-1 -44 -33.5 -94.5t-73.5 -86t-74.5 -59.5t-40.5 -24q-6 0 -6 4v2t0.5 1.5l1.5 1.5l2.5 2.5t3.5 2.5t5 3.5t6.5 5t8.5 6t10 7.5q116 87 116 176q0 32 -11 67.5t-11 38.5q0 10 23.5 22t32.5 12z" />
    <glyph glyph-name="hyphen" unicode="-" horiz-adv-x="576" 
d="M480 350q11 0 48.5 1t43.5 1q5 0 5 -2q0 -1 -0.5 -2.5t-3.5 -7t-6 -12.5q-13 -30 -20 -30q-4 0 -88 4t-141 4q-34 0 -88.5 -2t-57.5 -2q-4 0 -4 2q0 1 1 2.5l5 7.5t9 14q15 26 22 26q16 0 113 -2t162 -2z" />
    <glyph glyph-name="period" unicode="." horiz-adv-x="320" 
d="M112 28q0 33 24 61t57 28q17 0 27 -10.5t10 -28.5q0 -30 -26.5 -58t-51.5 -28q-40 0 -40 36z" />
    <glyph glyph-name="slash" unicode="/" horiz-adv-x="522" 
d="M640 859q-280 -503 -527 -975q-4 -8 -30 -20q-31 -14 -36 -14q-3 0 -3 3q0 1 1.5 2.5t3.5 4.5l4 6q280 486 546 995q16 31 42 80.5t29 55.5q2 4 11 6q28 4 37 4q4 0 4 -2q0 -1 -1 -2.5l-2 -3t-2 -3.5q-3 -6 -13 -23.5t-27.5 -48.5t-36.5 -65z" />
    <glyph glyph-name="zero" unicode="0" horiz-adv-x="760" 
d="M704 886q59 0 95.5 -55t36.5 -135q0 -124 -56 -257t-137.5 -232.5t-175 -164t-167.5 -64.5q-60 0 -97 54t-37 135q0 124 56 257t138 232.5t176 164.5t168 65zM753 671q0 79 -23.5 124.5t-67.5 45.5q-80 0 -171 -88q-98 -97 -168.5 -253t-70.5 -291q0 -80 26.5 -127.5
t70.5 -47.5q87 0 177 93q95 99 161 253.5t66 290.5z" />
    <glyph glyph-name="one" unicode="1" horiz-adv-x="630" 
d="M628 674q0 1 -1 1q-2 0 -140 -118q-75 -64 -171 -132.5t-158 -103.5q-14 -8 -40 -8q-6 0 -6 5q0 4 18 14q200 119 348 239q115 94 176 155q7 8 32.5 60t49.5 66q64 34 78 34t14 -18q0 -17 -24 -50.5t-64 -67.5q-160 -285 -347 -673q-12 -24 -17.5 -34t-10.5 -20
t-11.5 -12t-11 -4.5t-19 -4.5t-25.5 -5q-19 -4 -30 -9t-15 -7t-7 -2q-7 0 -7 8q0 4 13.5 27t39.5 65t44 75q25 45 102.5 181t133.5 235.5t56 103.5z" />
    <glyph glyph-name="two" unicode="2" horiz-adv-x="700" 
d="M771 703q0 -49 -35 -104.5t-108.5 -117.5t-118.5 -96t-130 -92q-8 -6 -12 -8.5t-10 -7t-11 -7.5q-21 -15 -58.5 -41t-54 -37.5t-42 -30.5t-48.5 -39q95 -5 206 -24q128 -22 209 -22q34 0 57.5 13t33.5 28q2 2 4 7t4.5 7.5t5.5 2.5q6 0 6 -6q0 -2 -11 -21t-26 -45.5
t-22 -43.5q-12 -28 -94 -28q-27 0 -66.5 7.5t-85.5 19t-59 14.5q-115 23 -203 23q-48 0 -71 -21q-5 -5 -13.5 -16.5t-16 -17t-18.5 -5.5q-5 0 -9 5t-4 9q0 15 30 39q35 29 64 51.5t65 48t53.5 38.5t68.5 48t73 50q152 105 202 149q144 125 145 240q0 69 -36 106t-101 37
q-63 0 -121 -47q-31 -25 -40 -47q-9 -19 -14 -19q-9 0 -9 9q0 7 19.5 31t33.5 38q55 51 100.5 77.5t103.5 26.5q66 0 115 -45.5t49 -135.5z" />
    <glyph glyph-name="three" unicode="3" horiz-adv-x="710" 
d="M540 518q61 -19 100 -68.5t39 -128.5q0 -127 -128.5 -235t-301.5 -108q-122 0 -188 62q-29 27 -29 51q0 12 8 20q16 12 34 30t28.5 29.5t11.5 11.5q6 0 6 -8l-4 -4q-3 -4 -6.5 -14t-3.5 -23q0 -9 12 -28t33 -40.5t58.5 -37.5t79.5 -16q125 0 211.5 83t86.5 207
q0 75 -45 128.5t-115 53.5q-17 0 -32.5 -4.5t-21.5 -4.5q-7 0 -7 6q0 8 27.5 22.5t52.5 18.5q165 33 210 140q14 34 14 74q0 111 -123 111q-32 0 -60 -15t-47 -29.5t-29 -14.5h-1q-3 0 -3 7v1q0 6 29 27.5t76.5 42.5t86.5 21q83 0 124 -38.5t41 -102.5q0 -62 -66 -126.5
t-158 -100.5z" />
    <glyph glyph-name="four" unicode="4" horiz-adv-x="760" 
d="M152 281q-49 -33 -71 -33q-11 0 -11 11q0 7 32.5 27.5t55.5 28.5q227 230 421 530q7 12 35 25q35 16 36 16q2 0 2 -2q0 -1 -2 -3l-4.5 -4.5l-3.5 -3.5q-207 -316 -440 -546q40 8 62 8q23 0 43 -1t40 -3.5l32 -4t32.5 -6t26.5 -5.5t29 -7t26 -7q51 90 113 211
q16 32 29.5 46t46.5 30q14 7 31 17.5t27.5 16t16.5 5.5t6 -4q0 -3 -5 -7t-13.5 -12t-15.5 -19q-82 -137 -171 -299q57 -10 122 -10q107 0 162 24q6 3 10.5 6.5t7 5.5t3.5 2q2 0 2 -2q0 -1 -2 -3t-6.5 -7.5t-8.5 -10.5q-11 -14 -27 -21q-87 -34 -207 -34q-46 0 -82 3
q-42 -76 -97 -185q-2 -5 -5.5 -11.5t-5 -10t-4 -8.5t-4.5 -7.5t-4 -6t-4 -5t-4.5 -3t-5 -2t-5.5 -0.5q-28 0 -48 -5.5t-29.5 -11t-13.5 -5.5q-6 0 -6 6q0 1 2 4.5t8.5 13t15.5 23t26.5 40t37.5 58.5q53 83 78 127q-20 4 -70 18t-94 20.5t-102 6.5q-6 0 -32 -4z" />
    <glyph glyph-name="five" unicode="5" horiz-adv-x="700" 
d="M249 -22q-72 0 -128.5 40t-56.5 95q0 12 6.5 21t24.5 27l7 7q12 12 50 58q6 7 9 7l3 -4l-10 -16q-17 -24 -17 -70q0 -50 54 -85t133 -35q78 0 139.5 32.5t95 81.5t50 97t16.5 88q0 93 -49 139t-141 46q-49 0 -93 -29q-6 -4 -13 -11.5t-12.5 -11.5t-10.5 -4q-9 0 -9 8
q0 2 13.5 17.5t37.5 46t51 72t59 107.5t58 141q1 4 2.5 9t2.5 7.5t2 5.5t3 4t4 1q109 -16 222 -16q112 0 159 19q11 4 19 11t12 12t6 5q5 0 5 -5q0 -6 -35 -41q-32 -32 -57 -40q-79 -26 -236 -26q-38 0 -92 6q-56 -124 -137 -253q58 28 97 28q105 0 163 -57t58 -156
q0 -62 -37.5 -129t-98.5 -122.5t-149 -91.5t-180 -36z" />
    <glyph glyph-name="six" unicode="6" horiz-adv-x="730" 
d="M219 252q-14 -64 -14 -127q0 -51 31 -84.5t78 -33.5q124 0 220 89t96 187q0 58 -24.5 89.5t-95.5 31.5q-44 0 -128.5 -39t-162.5 -113zM225 276q108 95 167 133q93 60 161 60q72 0 114.5 -36.5t42.5 -99.5q0 -56 -36.5 -119t-96.5 -116t-145.5 -88t-173.5 -35
q-76 0 -114.5 40.5t-38.5 105.5q0 78 38 163.5t101 161.5t118 130.5t115 103.5q156 128 413 220q8 4 15 4q3 0 3 -3q0 -1 -3.5 -4.5t-10.5 -12.5t-14 -23q-11 -21 -40 -26q-67 -10 -170 -60t-171 -109q-220 -188 -274 -390z" />
    <glyph glyph-name="seven" unicode="7" horiz-adv-x="660" 
d="M126 26q110 156 276 350q-82 -3 -123 -8q-8 -1 -15.5 -2t-11.5 -2t-7.5 -1.5t-5.5 -0.5q-3 0 -3 2q0 1 2 4l5 7.5l5 7.5q1 2 3 5.5t3 5t3.5 4t4 3.5t4 2t5.5 1h155q156 184 372 389l-1 1q-130 -31 -275 -31q-135 0 -194 16q-37 9 -37 24q0 2 19 32q6 9 14 23.5t13 22.5
t8 8l1 -1l-1 -3q-1 -3 -1 -5q0 -26 78.5 -39t134.5 -13q63 0 182 11t141 27q31 22 33 22q8 0 8 -8q0 -2 -2.5 -5.5t-10 -11.5t-17 -17t-29.5 -28.5t-40 -39.5l-35.5 -35.5l-40 -40l-37.5 -37.5t-41.5 -42.5t-37.5 -40t-41.5 -45t-37 -42t-39.5 -47t-35 -44.5h153q9 0 9 -5
t-41 -10q-54 -7 -141 -11q-109 -144 -209 -301q-18 -27 -40 -73q-3 -5 -14 -7t-27.5 -3t-23.5 -3q-16 -4 -24.5 -9t-12.5 -5t-4 4q0 9 24 45z" />
    <glyph glyph-name="eight" unicode="8" horiz-adv-x="700" 
d="M468 486l-72 -36q-222 -110 -222 -267q0 -64 43 -110t123 -46q99 0 173.5 58.5t74.5 159.5q0 62 -30.5 116.5t-89.5 124.5zM688 598q-64 -26 -154 -76q130 -126 130 -244q0 -59 -42 -117.5t-101 -97.5t-119.5 -63.5t-100.5 -24.5q-102 0 -157 54.5t-55 136.5
q0 50 26 97.5t70.5 85.5t93.5 67.5t106 53.5l71 30q-56 66 -56 149q0 69 51 125.5t119 84t130 27.5q58 0 97 -38t39 -82q0 -63 -56.5 -101.5t-119.5 -38.5q-14 0 -14 10q0 8 12 8q2 0 8 -2t12 -2q28 0 54 28.5t26 73.5q0 44 -28 78t-80 34q-79 0 -127.5 -49t-48.5 -131
q0 -84 48 -140q139 63 159 71q36 15 37 15q8 0 8 -7q0 -2 -3.5 -3.5t-14.5 -5t-20 -6.5z" />
    <glyph glyph-name="nine" unicode="9" horiz-adv-x="690" 
d="M658 851q-88 0 -169 -83t-81 -179q0 -61 24 -95.5t62 -34.5q21 0 40 4t32 8.5t31.5 16.5t26.5 18t28.5 22.5t26.5 21.5q74 159 74 229q0 11 -2 19.5t-9.5 22.5t-29 22t-54.5 8zM322 582q0 72 55 143t143.5 116t180.5 45q52 0 91.5 -30.5t39.5 -91.5q0 -20 -7.5 -49
t-21 -61.5t-24 -56.5t-24.5 -52.5t-16 -32.5q-64 -139 -102.5 -212t-80.5 -129q-147 -194 -324 -194q-70 0 -114 38t-44 105q0 60 28 96t68 42q17 3 42.5 12.5t33.5 9.5q14 0 14 -8q0 -6 -6 -6q-2 0 -8 1t-10 1q-32 0 -57 -43.5t-25 -96.5t35 -86t91 -33q129 0 231 163
q24 38 46 87t55.5 130.5t51.5 124.5q-2 -1 -15.5 -10.5t-17 -12t-17 -11t-20 -11.5t-20 -10.5t-22.5 -10.5t-23 -7.5t-26 -7t-26.5 -4t-28.5 -1.5q-53 0 -89.5 37.5t-36.5 116.5z" />
    <glyph glyph-name="colon" unicode=":" horiz-adv-x="404" 
d="M286 360q0 33 24 61t57 28q17 0 27 -10.5t10 -28.5q0 -30 -26.5 -58t-51.5 -28q-40 0 -40 36zM112 28q0 33 24 61t57 28q17 0 27 -10.5t10 -28.5q0 -30 -26.5 -58t-51.5 -28q-40 0 -40 36z" />
    <glyph glyph-name="anoteleia" unicode="&#x387;" horiz-adv-x="420" 
d="M325 327q-18 0 -32 12t-14 27q0 23 17.5 41.5t39.5 18.5q17 0 29.5 -11t12.5 -29q0 -19 -16 -39t-37 -20z" />
    <glyph glyph-name="uni1FFE" unicode="&#x1ffe;" 
d="M421 748q10 -15 10 -16q0 -6 -8 -6q-4 0 -12.5 13.5t-16.5 39.5t-8 52q0 51 28.5 88t47.5 37q5 0 13.5 -7t8.5 -15q0 -3 -11.5 -14t-26 -25t-26 -39.5t-11.5 -53.5q0 -33 12 -54z" />
    <glyph glyph-name="equal" unicode="=" horiz-adv-x="800" 
d="M567 316q29 0 103 2t77 2q4 0 4 -2t-9 -22q-2 -4 -3.5 -8t-2.5 -6t-2 -4.5t-1.5 -3.5l-1 -2t-1.5 -1.5t-2 -0.5q-4 0 -161 4t-214 4q-34 0 -103.5 -2t-72.5 -2q-4 0 -4 2q0 1 1 3t5.5 8.5t9.5 14.5q2 4 4.5 8.5t3.5 6.5t2.5 4t2.5 2.5t3 0.5q16 0 156.5 -4t205.5 -4z
M631 454q29 0 103 2t77 2q4 0 4 -2t-9 -22q-2 -4 -3.5 -8t-2.5 -6t-2 -4.5t-1.5 -3.5l-1 -2t-1.5 -1.5t-2 -0.5q-4 0 -161 4t-214 4q-34 0 -103.5 -2t-72.5 -2q-4 0 -4 2q0 1 1 3t5.5 8.5t9.5 14.5q2 4 4.5 8.5t3.5 6.5t2.5 4t2.5 2.5t3 0.5q16 0 156.5 -4t205.5 -4z" />
    <glyph glyph-name="uni1FBF" unicode="&#x1fbf;" 
d="M401 748q42 42 42 109q0 23 -7 37.5t-14 22t-7 12.5q0 9 13 18t19 9q14 0 25 -23t11 -46q0 -35 -22 -75t-43.5 -63t-27.5 -23t-6 4q0 3 2.5 5.5t7.5 6.5t7 6z" />
    <glyph glyph-name="semicolon" unicode=";" horiz-adv-x="454" 
d="M208 312q0 33 24 61t57 28q17 0 27 -10.5t10 -28.5q0 -30 -26.5 -58t-51.5 -28q-40 0 -40 36zM160 84q40 0 40 -88q-1 -44 -33.5 -94.5t-73.5 -86t-74.5 -59.5t-40.5 -24q-6 0 -6 4v2t0.5 1.5l1.5 1.5l2.5 2.5t3.5 2.5t5 3.5t6.5 5t8.5 6t10 7.5q116 87 116 176
q0 32 -11 67.5t-11 38.5q0 10 23.5 22t32.5 12z" />
    <glyph glyph-name="uni1FDF" unicode="&#x1fdf;" 
d="M420 756q2 -3 6.5 -8.5t8 -9.5t3.5 -7q0 -4 -4 -4q-10 0 -26 31q-22 36 -22 74t24 62q20 20 34 20q6 0 14 -10t8 -20q0 -5 -2 -6.5t-9 -3.5t-11 -4q-37 -17 -37 -67q0 -25 13 -47zM455 1020q27 0 48 -20t40 -39.5t41 -19.5q38 0 76 55q10 14 18 17q10 3 14 3l2 -1
q0 -4 -17.5 -25t-55 -44.5t-77.5 -23.5q-24 0 -44 19t-39 38t-40 19q-12 0 -23.5 -3.5t-18.5 -6.5t-18 -12.5t-15 -13t-16.5 -17.5t-14.5 -16q-4 -4 -12 -7q-9 -4 -11 -4t-2 2q0 7 42 43q67 57 123 57z" />
    <glyph glyph-name="Alpha" unicode="&#x391;" horiz-adv-x="980" 
d="M1020 98q-24 -20 -53.5 -39.5t-83.5 -43t-97 -23.5q-58 0 -77 37.5t-19 124.5q0 58 12 142q-90 -10 -120 -10q-41 0 -107 11t-83 11q-14 0 -20 -2q-192 -219 -270 -284q-29 -22 -86 -28q-5 -1 -15.5 -3t-20 -3t-18.5 -1q-12 0 -12 7q0 6 16 10q30 10 64 40
q151 132 315 297.5t401 442.5q16 18 26.5 30.5t21.5 22.5t16 14.5t15.5 10.5t13.5 7.5t17 7t20 7.5q3 1 20.5 9.5t23.5 8.5q8 0 8 -10q0 -8 -4.5 -20.5t-10.5 -26t-7 -15.5q-29 -74 -63 -220.5t-51 -277.5q31 9 65 28t55 33.5t24 14.5q6 0 6 -6q0 -5 -22 -21t-59 -35.5
t-71 -31.5q-10 -87 -10 -136q0 -83 15.5 -116t45.5 -33t78.5 23t92.5 56q62 48 136 140q4 6 8 6t4 -4q0 -2 -2 -6q-68 -92 -138 -146zM404 342h34q40 0 117 -12t111 -12q24 0 40 2q7 58 20 128.5t26.5 130t25.5 110.5t20 81.5t8 31.5q0 6 -3 6q-7 0 -33 -32z" />
    <glyph glyph-name="Beta" unicode="&#x392;" horiz-adv-x="850" 
d="M396 476q-113 -217 -219 -449q-6 -15 -16 -20.5t-40 -13.5q-24 -7 -40.5 -15t-23 -12t-11.5 -4q-7 0 -7 5q0 2 4 6.5t13 16.5t19 27q43 66 85.5 144t92 174.5t73.5 141.5q11 19 45.5 89.5t44.5 87.5q65 110 163 171t183 61q60 0 101 -40t41 -106q0 -157 -268 -259l1 -2
q23 1 32 1q68 0 119.5 -50.5t51.5 -113.5q0 -132 -124.5 -231.5t-292.5 -99.5q-85 0 -142 22t-57 45q0 5 15 25q3 4 8.5 13t9.5 15t6 6q3 0 3 -4q0 -32 48.5 -65t106.5 -33q127 0 229 103.5t102 227.5q0 59 -37.5 90t-82.5 31q-33 0 -54.5 -13t-37.5 -13q-5 0 -16.5 9
t-11.5 14q0 6 8 9t23.5 5t21.5 4q93 28 172.5 94.5t79.5 148.5q0 57 -34 91t-85 34q-49 0 -84 -22.5t-78 -89.5q-33 -52 -140 -256z" />
    <glyph glyph-name="uni1FDD" unicode="&#x1fdd;" 
d="M351 748q10 -15 10 -16q0 -6 -8 -6q-4 0 -12.5 13.5t-16.5 39.5t-8 52q0 51 28.5 88t47.5 37q5 0 13.5 -7t8.5 -15q0 -3 -11.5 -14t-26 -25t-26 -39.5t-11.5 -53.5q0 -33 12 -54zM522 732q0 -5 -8 -5q-6 0 -11 14l-50 154q-10 27 -10 42q0 8 8 20t16 12q9 0 12 -15
l39 -199q4 -20 4 -23z" />
    <glyph glyph-name="Delta" unicode="&#x394;" horiz-adv-x="970" 
d="M816 81q0 121 -11 408t-11 305q0 6 -6 6q-1 0 -26 -25q-54 -60 -346.5 -400t-292.5 -345l2 -2q567 0 645 10q16 2 26.5 6.5t14 11.5t4.5 11.5t1 13.5zM-6 -28q-10 0 -10 9q0 3 2.5 6t9 8.5t15 13t24.5 22t33 31.5q60 59 147.5 155.5t237 264t291.5 321.5q16 17 26.5 27.5
t16.5 17t14.5 11t10.5 6t14 5.5t16 6q7 3 18.5 8t19.5 8.5t12 3.5q8 0 8 -12q0 -7 -1 -26.5t-2 -64t-1 -110.5q0 -78 6.5 -352t6.5 -296q0 -24 -17 -29.5t-81 -6.5h-17q-75 -1 -310.5 -3.5t-415.5 -6.5q-23 -1 -38.5 -3.5t-20.5 -5.5t-8.5 -5.5t-6.5 -2.5z" />
    <glyph glyph-name="Epsilon" unicode="&#x395;" horiz-adv-x="834" 
d="M430 -24q-100 0 -186 60t-86 154q0 68 29.5 126t73.5 93.5t96 64t96 43t73.5 24.5t29.5 13q0 8 -12 16q-61 42 -61 117q0 31 19 65t54.5 64.5t95 50t130.5 19.5q20 0 52 -4t69.5 -12.5t64 -25t26.5 -38.5q0 -9 -3.5 -16t-11 -19t-13.5 -25q-8 -16 -12 -16t-8 12
q-12 41 -61.5 80.5t-124.5 39.5q-55 0 -97.5 -13.5t-64 -34.5t-32 -41t-10.5 -37q0 -38 19.5 -77.5t52.5 -58.5q40 -19 40 -24q0 -17 -8 -27t-34 -13q-88 -10 -155 -36t-106.5 -58.5t-64.5 -74.5t-33.5 -81t-8.5 -82q0 -50 21.5 -88.5t56 -59t70.5 -31t72 -10.5
q137 0 215 72t78 163q0 7 -2 15.5t-2 10.5q0 6 4 6q7 0 28 -15t21 -26q0 -23 -16 -56t-49.5 -69.5t-78.5 -67.5t-110 -51.5t-136 -20.5z" />
    <glyph glyph-name="Phi" unicode="&#x3a6;" horiz-adv-x="933" 
d="M319 65q-118 16 -178.5 87.5t-60.5 169.5q0 46 12 89.5t41 90.5t73.5 88t114.5 80.5t159 69.5q45 15 54 15q13 0 13 -8q0 -3 -8 -4.5t-27 -6t-37 -11.5q-66 -25 -134 -82q-84 -69 -127 -153.5t-43 -164.5q0 -75 42.5 -134t122.5 -83q19 44 49 101t73 133.5t64 115.5
q14 26 44 81t44.5 82.5t35.5 67.5t34.5 69.5t22.5 55.5q-40 8 -92 8q-88 0 -160 -47q-17 -10 -22 -10q-12 0 -12 9q0 26 108.5 51t172.5 25h17q8 30 8 51q0 30 -17 48t-40 18q-35 0 -75 -30q-12 -9 -18 -9q-1 0 -3.5 2t-2.5 4t15 14q32 25 69 39t61 14q44 0 71 -27.5
t27 -62.5q0 -26 -16 -71q113 -24 173.5 -103.5t60.5 -196.5q0 -136 -121 -261.5t-307 -184.5q-95 -31 -199 -34q-7 -25 -7 -47q0 -30 17 -48t39 -18q33 0 75 31q12 9 18 9q1 0 3.5 -2.5t2.5 -3.5q0 -2 -15 -14q-32 -25 -69 -39.5t-60 -14.5q-44 0 -71.5 27.5t-27.5 62.5
q0 23 13 62zM592 117q151 45 246.5 158.5t95.5 242.5q0 211 -159 276q-18 -40 -46.5 -92.5t-70.5 -127t-66 -118.5q-8 -16 -33.5 -62.5t-36.5 -67t-32 -60.5t-32.5 -64t-24.5 -54t-21 -53q8 -1 25 -1q74 0 155 23z" />
    <glyph glyph-name="Gamma" unicode="&#x393;" horiz-adv-x="746" 
d="M545 886q85 0 211.5 -11.5t216.5 -11.5q43 0 79 14.5t40 37.5q3 18 10 18q8 0 8 -9q0 -34 -61 -72t-130 -38q-41 0 -92 4.5t-113 11.5t-93 10q-92 -155 -225 -406q-107 -201 -192 -373q-14 -29 -26 -41t-20 -14.5t-34 -5.5q-25 -3 -45 -10t-24 -7q-7 0 -7 5q0 3 3 6
t12 13t19 25q65 92 133 216q10 18 75 137.5t94 174.5t73.5 142.5t68.5 143.5q-19 1 -29 1q-49 0 -98 -17t-80 -48q-20 -20 -22 -20q-6 0 -6 6t22 28q88 90 232 90z" />
    <glyph glyph-name="Eta" unicode="&#x397;" horiz-adv-x="1025" 
d="M386 409q0 -1 -1.5 -3.5t-2.5 -3.5q-190 -367 -202 -392q-4 -7 -15.5 -10.5t-33 -5.5t-30.5 -4q-16 -3 -25.5 -11.5t-13.5 -8.5t-4 6t71 130q91 158 163 285q-3 19 -8.5 36.5t-5.5 22.5q0 10 6 10q22 0 46 -1q45 84 57 110q74 155 74 224q0 53 -50 53q-73 0 -137 -64
q-20 -20 -22 -20q-6 0 -6 6t22 28q44 46 97 68t89 22q39 0 67 -25.5t28 -69.5q0 -73 -91 -247q-6 -12 -47 -87q43 -1 172 -1q171 1 239 7q29 55 209 379q4 6 11 10t12.5 5.5t19.5 3.5t22 3q18 3 34.5 9t25 9.5t11.5 3.5q6 0 6 -6q0 -2 -2 -3.5t-7 -6t-11.5 -11.5t-18 -21.5
t-23.5 -33.5q-139 -210 -211 -355q-44 -87 -68 -137t-47.5 -113.5t-23.5 -95.5q0 -37 20.5 -58t55.5 -21q42 0 105.5 22.5t114.5 61.5q62 48 136 140q4 6 8 6t4 -4q0 -2 -2 -6q-68 -92 -138 -146q-163 -122 -300 -122q-51 0 -78 30t-27 78q0 17 3.5 36t12.5 43t16.5 43
t23 50.5t24.5 49.5t28.5 55.5t28.5 54.5q-27 13 -143 13q-233 0 -268 -20z" />
    <glyph glyph-name="Iota" unicode="&#x399;" horiz-adv-x="400" 
d="M229 142q-28 -55 -63 -138q-4 -10 -17 -11.5t-36.5 -2t-42.5 -8.5q-10 -4 -17 -9t-11 -5q-10 0 -10 6q0 3 6.5 11t16.5 19.5t13 15.5q36 47 106 177q120 220 277 521q42 81 42 102q0 18 -19 23q-3 1 -9 2t-8.5 2t-2.5 4q0 13 16 13q44 0 103.5 4.5t68.5 4.5q4 0 7 -4
t3 -7q0 -4 -3.5 -4.5t-14 -4.5t-22.5 -14q-27 -22 -85 -129q-135 -249 -298 -568z" />
    <glyph glyph-name="Theta" unicode="&#x398;" horiz-adv-x="960" 
d="M668 458q11 0 48.5 1t43.5 1q5 0 5 -2q0 -1 -0.5 -2.5t-3.5 -7t-6 -12.5q-13 -30 -20 -30q-4 0 -88 4t-141 4q-34 0 -88.5 -2t-57.5 -2q-4 0 -4 2q0 1 1 2.5l5 7.5t9 14q15 26 22 26q16 0 113 -2t162 -2zM1029 620q0 -196 -182 -403q-101 -114 -226 -176.5t-248 -62.5
q-133 0 -202 71t-69 185q0 117 64 237t139 202q78 91 198.5 152t224.5 61q64 0 104.5 -35t40.5 -79q0 -5 -4.5 -9.5t-13.5 -12.5t-16 -16t-14 -20t-11 -19t-7 -7q-5 0 -5 7q0 25 -7 51q-15 54 -51 77t-77 23q-77 0 -167 -58t-152 -146q-145 -199 -145 -380q0 -108 58 -175.5
t168 -67.5q108 0 210.5 62.5t174.5 177.5q47 75 84 174t37 200q0 94 -23 158t-86 88q-8 3 -8 6q0 2 4 2q22 0 65 -21.5t67 -47.5q75 -80 75 -198z" />
    <glyph glyph-name="Kappa" unicode="&#x39a;" horiz-adv-x="769" 
d="M542 780q0 -58 -74 -200q-5 -9 -7 -14q138 62 297.5 142.5t212.5 119.5q19 14 50.5 31t41.5 17q4 0 4 -4q0 -7 -35 -37.5t-99.5 -72.5t-129.5 -68l-358 -160l-82 -150q16 -27 45.5 -78t47 -80.5t47.5 -78t62 -97.5q76 -115 115 -155q76 -79 163 -79q92 0 186 72q4 4 8 4
q2 0 2 -2q0 -29 -72.5 -62.5t-145.5 -33.5q-113 0 -179.5 43.5t-142.5 158.5q-99 152 -182 304q-111 -215 -168 -302q-5 -8 -12.5 -12.5t-36.5 -9t-80 -4.5q-14 0 -14 6q0 2 6.5 5t19.5 11t24 22q115 141 223 352q-16 27 -40 54.5t-36 27.5q-3 0 -10 -2t-10 -2q-8 0 -8 8
q0 9 194 74q82 150 82 230q0 44 -17.5 69t-51.5 25q-19 0 -54 -15.5t-74 -54.5q-20 -20 -22 -20q-6 0 -6 6t22 28q44 46 97 68t89 22q54 0 81 -31.5t27 -74.5zM325 448l26 46q-11 -3 -27.5 -9t-18.5 -7q7 -13 20 -30z" />
    <glyph glyph-name="Lambda" unicode="&#x39b;" horiz-adv-x="980" 
d="M906 830q-125 -426 -125 -652q0 -83 15 -116t45 -33t78.5 23t92.5 56q62 48 136 140q4 6 8 6t4 -4q0 -2 -2 -6q-68 -92 -138 -146q-24 -20 -53.5 -39.5t-83.5 -43t-97 -23.5q-57 0 -78.5 45.5t-21.5 130.5q0 92 30 246.5t60 271.5l30 116q0 6 -3 6q-7 0 -33 -32
l-398 -470q-171 -202 -270 -284q-29 -22 -86 -28q-3 0 -22.5 -4t-31.5 -4t-12 8q0 10 16 14q38 13 64 36q151 132 315 297.5t401 442.5q16 18 26.5 30.5t21.5 22.5t16 14.5t15.5 10.5t13.5 7.5t17 7t20 7.5q3 1 20.5 9.5t23.5 8.5q8 0 8 -10q0 -11 -11 -36t-11 -26z" />
    <glyph glyph-name="Mu" unicode="&#x39c;" horiz-adv-x="1170" 
d="M542 780q0 -40 -16 -85q35 36 57 57t58.5 51.5t70.5 45.5t64 15q54 0 89.5 -32.5t35.5 -111.5q111 102 177 141t138 39q49 0 85 -28.5t36 -87.5q0 -43 -34.5 -101t-83.5 -123.5t-97.5 -141t-83 -177t-34.5 -207.5q0 -76 19 -133.5t51.5 -90t71 -48.5t80.5 -16
q115 0 204 110q6 7 10.5 14t6.5 9.5t3.5 5t2.5 3t3 0.5q4 0 4 -4q0 -15 -21 -45t-54.5 -62t-86 -55.5t-106.5 -23.5q-118 0 -194 76t-76 214q0 84 23.5 166.5t58.5 145.5t76.5 127t76.5 113.5t58.5 102t23.5 95.5q0 58 -28 86t-61 28q-100 0 -261 -182q-20 -48 -34 -68
q-10 -14 -45 -33t-49 -19q-8 0 -8 4q0 18 60 78q8 21 8 56q0 40 -10.5 67t-28 38.5t-31.5 15.5t-30 4q-37 0 -97 -56t-125 -149q-75 -123 -180 -332t-107 -212q-11 -21 -20 -32.5t-22.5 -17.5t-19.5 -7t-28 -4q-25 -3 -50 -12t-29 -9q-7 0 -7 5q0 2 6 6t18.5 14t23.5 25
q56 73 132 216q22 41 57.5 105.5t53 96.5t42 79t36 73t24.5 57.5t17.5 54t4.5 41.5q0 44 -17.5 70.5t-51.5 26.5q-19 0 -54 -15.5t-74 -54.5q-20 -20 -22 -20q-6 0 -6 6t22 28q44 46 97 68t89 22q54 0 81 -31.5t27 -74.5z" />
    <glyph glyph-name="Nu" unicode="&#x39d;" horiz-adv-x="907" 
d="M406 848q-18 3 -18 5q0 12 33 18.5t64 6.5q42 0 55 -27.5t17 -101.5q1 -12 29 -318q18 -194 44 -347h2q24 48 89 183.5t102 206.5q102 200 201 362q5 8 9.5 14t8 11t8 9t7 7t8.5 5.5t8.5 4t9.5 3.5t10 3t13 3.5l14 3.5q61 16 70 16q8 0 8 -3q0 -4 -1.5 -5.5t-11.5 -5.5
q-43 -20 -104 -80q-92 -92 -230 -355q-176 -338 -224 -473q-4 -10 -7.5 -13.5t-15.5 -7.5q-7 -3 -13.5 -6.5t-10.5 -5.5t-7 -2q-16 0 -20 26q-14 89 -24 165.5t-18.5 159.5t-11.5 106q-22 189 -37 369h-3q-80 -193 -140 -311q-179 -354 -255 -486q-7 -11 -13.5 -16.5
t-12.5 -7t-24 -5.5t-36 -10q-5 -1 -14 -5.5t-14 -4.5q-7 0 -7 7q0 1 11 9t28.5 24t30.5 34q163 226 286 475q3 7 20 41t25 50.5t23.5 50t24 55t18 48.5t14 48.5t4.5 37.5q0 27 -22 29z" />
    <glyph glyph-name="Omicron" unicode="&#x39f;" horiz-adv-x="960" 
d="M1029 620q0 -196 -182 -403q-101 -114 -226 -176.5t-248 -62.5q-133 0 -202 71t-69 185q0 117 64 237t139 202q78 91 198.5 152t224.5 61q64 0 104.5 -35t40.5 -79q0 -5 -4.5 -9.5t-13.5 -12.5t-16 -16t-14 -20t-11 -19t-7 -7q-5 0 -5 7q0 25 -7 51q-15 54 -51 77t-77 23
q-77 0 -167 -58t-152 -146q-145 -199 -145 -380q0 -108 58 -175.5t168 -67.5q108 0 210.5 62.5t174.5 177.5q47 75 84 174t37 200q0 94 -23 158t-86 88q-8 3 -8 6q0 2 4 2q22 0 65 -21.5t67 -47.5q75 -80 75 -198z" />
    <glyph glyph-name="Pi" unicode="&#x3a0;" horiz-adv-x="920" 
d="M540 886q85 0 250 -11.5t255 -11.5q68 0 109 16.5t46 41.5q3 18 10 18q8 0 8 -9q0 -35 -70.5 -75.5t-152.5 -40.5h-34q-72 -119 -153.5 -285.5t-118.5 -260.5q-36 -92 -36 -162q0 -29 22.5 -54.5t63.5 -25.5t101.5 22t111.5 60q62 48 136 140q4 6 8 6t4 -4q0 -2 -2 -6
q-68 -92 -138 -146q-59 -45 -135 -79.5t-140 -34.5q-55 0 -90 24.5t-35 73.5q0 67 45 176q31 76 76.5 169t107.5 212t91 178q-52 2 -154.5 8t-132.5 8q-97 -220 -191 -399q-107 -201 -192 -373q-14 -29 -26 -41t-20 -14.5t-34 -5.5q-25 -3 -45 -10t-24 -7q-7 0 -7 5q0 3 3 6
t12 13t19 25q65 92 133 216q6 12 47.5 87.5t56.5 102.5t50.5 95t54.5 108t43 95t40 101q-6 1 -11 1q-72 0 -114.5 -12.5t-73.5 -43.5q-20 -20 -22 -20q-6 0 -6 6t22 28q90 90 232 90z" />
    <glyph glyph-name="Chi" unicode="&#x3a7;" horiz-adv-x="796" 
d="M1050 829q-196 -132 -465 -371q24 -267 56 -369q43 -144 127 -144q38 0 59 17q4 3 9 9t8 10t4 4q4 0 4 -5q0 -8 -12 -23.5t-39.5 -30t-61.5 -14.5q-138 0 -179 143q-17 59 -47 338q-271 -248 -410 -389q-13 -13 -38 -13q-30 0 -57 -8q-10 -3 -17 -7t-11 -6t-7 -2
q-8 0 -7 4v1l1 1q2 3 18 14t38.5 26t34.5 24q115 92 451 388q-13 125 -30 248q-11 81 -29 120.5t-51 39.5q-50 0 -102 -52q-20 -20 -22 -20q-6 0 -6 6t22 28q90 90 164 90q89 0 107 -160q4 -37 21 -235q199 178 370 325q47 41 90 50q26 6 71 6q6 0 11 -2t4 -5q0 -3 -3 -3h-2
q-2 1 -4 1q-19 0 -70 -34z" />
    <glyph glyph-name="Rho" unicode="&#x3a1;" horiz-adv-x="820" 
d="M90 34q71 116 152 278q114 228 144 311q25 71 25 110q0 6 -5 11.5t-5 7.5q0 4 5 5.5t33 5.5q20 3 37.5 8.5t27 9.5t10.5 4q14 0 14 -10q0 -7 -22 -65.5t-43 -102.5l2 -1q29 38 62.5 75t89 89t118.5 84t121 32q65 0 107.5 -47t42.5 -127q0 -99 -81 -193t-210 -151
t-263 -57q-71 0 -124 16q-27 -55 -53.5 -117t-54.5 -132t-30 -74q-4 -10 -17 -11.5t-36.5 -2.5t-42.5 -8q-10 -4 -17 -9t-11 -5q-10 0 -10 6q0 3 6.5 14t16 26.5t11.5 19.5zM351 374q78 -36 165 -36q102 0 199 53.5t155 134.5t58 161q0 63 -36 103t-92 40q-66 0 -136 -46.5
t-129.5 -121t-104.5 -146t-79 -142.5z" />
    <glyph glyph-name="Sigma" unicode="&#x3a3;" horiz-adv-x="945" 
d="M627 441q-49 148 -116 315q-7 17 -14 31l-10 20t-3 11q0 3 2 5.5t12 10.5l20 16l12 12t13 12t13.5 8t19.5 4q85 0 214 -11.5t219 -11.5q43 0 77 14.5t38 37.5q3 18 10 18q8 0 8 -9q0 -34 -61 -72t-130 -38q-52 0 -108.5 3t-136 8.5t-122.5 8.5l-1 -1q46 -160 126 -355
q0 -1 4.5 -10t4.5 -13q0 -10 -26 -27q-132 -85 -481 -385q344 -9 541 -9q42 0 73.5 19t31.5 54q0 12 8 12q2 0 4 -5t3.5 -13.5t2.5 -11.5q12 -33 12 -37q0 -34 -30 -58.5t-69 -24.5q-73 0 -250 19t-344 19q-24 0 -58 -8t-47 -8h-3q-29 1 -29 7q0 12 15 13q41 5 116 64
q292 226 439 366z" />
    <glyph glyph-name="Tau" unicode="&#x3a4;" horiz-adv-x="728" 
d="M919 814q-59 0 -172 13q-99 -169 -218 -393q-107 -201 -192 -373q-14 -29 -26 -41t-20 -14.5t-34 -5.5q-25 -3 -45 -10t-24 -7q-7 0 -7 5q0 3 3 6t12 13t19 25q65 92 133 216q254 465 307 589q-130 10 -158 10q-47 0 -96.5 -17t-81.5 -48q-20 -20 -22 -20q-6 0 -6 6
t22 28q88 90 236 90q85 0 211.5 -11.5t216.5 -11.5q43 0 77 14.5t38 37.5q3 18 10 18q8 0 8 -9q0 -34 -61 -72t-130 -38z" />
    <glyph glyph-name="Upsilon" unicode="&#x3a5;" horiz-adv-x="715" 
d="M499 432q-39 -54 -131 -234.5t-97 -187.5q-7 -10 -19.5 -12.5t-37 -5.5t-45.5 -10q-12 -4 -19.5 -9t-11.5 -5q-12 0 -12 6q0 2 8 11.5t21 25.5t22 29q166 250 238 413q44 99 44 211q0 70 -48.5 125t-114.5 55q-28 0 -69.5 -15.5t-72.5 -46.5q-20 -20 -22 -20q-6 0 -6 6
t22 28q46 47 97 68.5t93 21.5q96 0 150 -59t54 -142q0 -78 -25 -164h1q137 135 227.5 203t232.5 133q70 32 133 32q27 0 50 -12t23 -23q0 -4 -3 -4l-3 2q-4 2 -10 2q-34 0 -118 -20q-164 -39 -296.5 -135.5t-254.5 -266.5z" />
    <glyph glyph-name="uni1FDE" unicode="&#x1fde;" 
d="M369 748q10 -15 10 -16q0 -6 -8 -6q-4 0 -12.5 13.5t-16.5 39.5t-8 52q0 51 28.5 88t47.5 37q5 0 13.5 -7t8.5 -15q0 -3 -11.5 -14t-26 -25t-26 -39.5t-11.5 -53.5q0 -33 12 -54zM427 753l186 189q24 24 28 24t9.5 -11t5.5 -16q0 -12 -10 -19l-211 -180q-13 -13 -20 -13
q-5 0 -5 5q0 4 17 21z" />
    <glyph glyph-name="Omega" unicode="&#x3a9;" horiz-adv-x="1084" 
d="M264 29q-36 46 -65 117t-29 151q0 75 30 156.5t88 158t134.5 138.5t178.5 99t212 37q52 0 102.5 -17.5t94 -51t70.5 -89.5t27 -125q0 -98 -42 -194t-157 -217q-22 -23 -48 -46t-61 -51.5t-54 -44.5q34 -5 70 -12t61.5 -10t64.5 -3q55 0 69 8q5 3 9 8t7 5t3 -4
q0 -5 -3.5 -10.5t-15.5 -19.5t-18 -22q-14 -18 -31 -24t-48 -6q-55 0 -127 17.5t-103 17.5q-26 -29 -56 -29q-8 0 -8 12q1 11 7.5 18t25.5 17.5t29 17.5q12 9 40.5 31.5t44 35.5t38.5 33.5t41.5 40t34.5 40.5q127 164 127 358q0 125 -71.5 195.5t-171.5 70.5
q-102 0 -187.5 -33.5t-142 -86.5t-96 -121.5t-57 -137t-17.5 -133.5q0 -94 29 -163t78 -134q17 -21 17 -26q0 -10 -18 -10q-8 0 -28 1.5t-27 1.5q-70 0 -132.5 -9t-97.5 -9q-47 0 -56 27l-16 48q0 5 4 5q2 0 3 -2.5t4 -7.5t8 -8q22 -16 53 -16q26 0 61 4t45 4z" />
    <glyph glyph-name="Xi" unicode="&#x39e;" horiz-adv-x="950" 
d="M388 796q41 44 107.5 67t116.5 23q78 0 198.5 -34t197.5 -34q42 0 64 8t58 32q25 20 26 20q4 0 4 -4q0 -3 -20 -20q-99 -80 -206 -80q-78 0 -197.5 34t-198.5 34q-84 0 -144 -60q-20 -20 -22 -20q-6 0 -6 6t22 28zM696 374q-56 0 -139.5 24t-138.5 24q-42 0 -64 -8
t-58 -32q-25 -20 -26 -20q-4 0 -4 4q0 3 20 20q99 80 206 80q56 0 139.5 -24t138.5 -24q42 0 64 8t58 32q25 20 26 20q4 0 4 -4q0 -3 -20 -20q-99 -80 -206 -80zM228 88q92 0 228.5 -36t235.5 -36q42 0 64 8t58 32q25 20 26 20q4 0 4 -4q0 -3 -20 -20q-99 -80 -206 -80
q-99 0 -235.5 36t-228.5 36q-43 0 -64.5 -8t-57.5 -32q-25 -20 -26 -20q-4 0 -4 4q0 3 20 20q99 80 206 80z" />
    <glyph glyph-name="Psi" unicode="&#x3a8;" horiz-adv-x="986" 
d="M534 269q-9 -17 -26 -50.5t-25 -50.5q-21 -41 -45 -96q-19 -42 -29 -55t-29.5 -18.5t-68.5 -8.5h-8q-15 -1 -31 -3t-26.5 -3.5t-12.5 -1.5q-16 0 -16 8q0 10 12 10q44 0 91.5 62.5t133.5 212.5q-84 14 -136 58t-52 111q0 56 50 171.5t50 158.5q0 22 -3 36t-17.5 27
t-41.5 13q-72 0 -140 -68q-20 -20 -22 -20q-6 0 -6 6t22 28q44 46 97 68t89 22q54 0 81 -28t27 -72q0 -38 -47 -153.5t-47 -172.5q0 -54 33 -89.5t90 -48.5q76 133 159 294t111 224q11 24 18 28.5t36 9.5q9 1 30 6t26 5q6 0 6 -6q0 -2 -3.5 -7t-9 -13.5t-9.5 -14.5
q-177 -317 -287 -533q97 0 198.5 45t179 116t127 162.5t49.5 178.5q0 30 -17 50t-32 20q-7 0 -12 -2t-6 -2q-4 0 -4 4t10 12q39 30 70 30q20 0 40.5 -21t20.5 -59q0 -92 -61 -196t-154 -186.5t-210 -138.5t-223 -59z" />
    <glyph glyph-name="Zeta" unicode="&#x396;" horiz-adv-x="940" 
d="M825 817q94 0 179.5 15.5t90.5 15.5q8 0 19 -14q15 -19 15 -20q0 -3 -9 -6q-20 -6 -76 -54q-45 -40 -175 -153t-203.5 -178t-188 -171t-210.5 -202v-1q101 -7 203.5 -34t174.5 -54.5t179 -50t220 -22.5q41 0 74 21.5t33 53.5q0 10 6 10q1 0 3 -4.5t4.5 -11.5t4.5 -11
q12 -26 12 -32q0 -36 -31.5 -63.5t-71.5 -27.5q-68 0 -146 18t-153.5 44t-156.5 52.5t-184.5 44.5t-209.5 18q-27 0 -71.5 -4.5t-72.5 -4.5q-29 0 -29 7q0 12 15 13q29 4 106 70q371 313 794 715q-62 -13 -173 -13q-69 0 -159 18.5t-160 18.5q-65 0 -106 -38
q-20 -20 -22 -20q-6 0 -6 6t22 28q64 66 172 66q24 0 133 -22.5t154 -22.5z" />
    <glyph glyph-name="bracketleft" unicode="[" horiz-adv-x="540" 
d="M364 -126q20 0 20 -8t-20 -8h-317q-10 0 -10 8q0 3 55 100q317 559 537 1027q7 14 11 17.5t15 3.5h269q10 0 10 -6q0 -10 -20 -10q-122 0 -180 -6q-21 -2 -37 -35l-529 -1003q-25 -50 -25 -51q0 -14 24 -18q59 -11 197 -11z" />
    <glyph glyph-name="uni1FCF" unicode="&#x1fcf;" 
d="M410 751q32 29 32 70q0 32 -20 50q-3 2 -6.5 5t-5.5 4.5t-3.5 3t-1.5 3.5q0 9 11 18t17 9q9 0 20 -15q19 -23 19 -54q0 -52 -50 -96q-24 -22 -32 -22q-6 0 -6 4q0 3 4.5 6t11.5 7t10 7zM455 1020q27 0 48 -20t40 -39.5t41 -19.5q38 0 76 55q10 14 18 17q10 3 14 3l2 -1
q0 -4 -17.5 -25t-55 -44.5t-77.5 -23.5q-24 0 -44 19t-39 38t-40 19q-12 0 -23.5 -3.5t-18.5 -6.5t-18 -12.5t-15 -13t-16.5 -17.5t-14.5 -16q-4 -4 -12 -7q-9 -4 -11 -4t-2 2q0 7 42 43q67 57 123 57z" />
    <glyph glyph-name="bracketright" unicode="]" horiz-adv-x="540" 
d="M462 996q-20 0 -20 10q0 8 20 8h317q10 0 10 -8q0 -3 -55 -100q-317 -559 -537 -1027q-7 -14 -11 -17.5t-15 -3.5h-269q-10 0 -10 6q0 10 20 10q45 0 180 14q21 2 37 35l529 995q25 46 25 51q0 18 -20 21q-32 6 -201 6z" />
    <glyph glyph-name="uni1FCE" unicode="&#x1fce;" 
d="M427 753l186 189q24 24 28 24t9.5 -11t5.5 -16q0 -12 -10 -19l-211 -180q-13 -13 -20 -13q-5 0 -5 5q0 4 17 21zM343 748q42 42 42 109q0 23 -7 37.5t-14 22t-7 12.5q0 9 13 18t19 9q14 0 25 -23t11 -46q0 -35 -22 -75t-43.5 -63t-27.5 -23t-6 4q0 3 2.5 5.5t7.5 6.5t7 6
z" />
    <glyph glyph-name="uni1FCD" unicode="&#x1fcd;" 
d="M337 748q42 42 42 109q0 23 -7 37.5t-14 22t-7 12.5q0 9 13 18t19 9q14 0 25 -23t11 -46q0 -35 -22 -75t-43.5 -63t-27.5 -23t-6 4q0 3 2.5 5.5t7.5 6.5t7 6zM512 732q0 -5 -8 -5q-6 0 -11 14l-50 154q-10 27 -10 42q0 8 8 20t16 12q9 0 12 -15l39 -199q4 -20 4 -23z" />
    <glyph glyph-name="uni1FEF" unicode="&#x1fef;" 
d="M439 731q0 -5 -8 -5q-6 0 -11 14l-50 154q-10 27 -10 42q0 8 8 20t16 12q9 0 12 -15l39 -199q4 -20 4 -23z" />
    <glyph glyph-name="alpha" unicode="&#x3b1;" horiz-adv-x="658" 
d="M380 139q10 35 29 86.5t30 86t11 53.5q0 65 -57 65q-63 0 -124 -61t-95 -135.5t-34 -125.5q0 -36 14.5 -54.5t49.5 -18.5q33 0 73.5 24t102.5 80zM698 98q-144 -113 -254 -113q-77 0 -77 74q0 10 9 52q-118 -115 -226 -115q-43 0 -68 28.5t-25 75.5q0 67 59 150.5
t146 142t159 58.5q51 0 77 -20.5t26 -52.5q0 -19 -8.5 -44t-26.5 -62.5t-22 -47.5q35 42 78.5 91t50.5 58q26 30 50 38q29 10 38 10l2 -2q0 -2 -1 -3t-6 -3.5t-10 -6.5q-13 -10 -45 -42q-65 -67 -170 -182q-16 -60 -16 -92q0 -34 14 -49t54 -15q35 0 87 24t97 58
q62 48 136 140q4 6 8 6t4 -4q0 -2 -2 -6q-68 -92 -138 -146z" />
    <glyph glyph-name="beta" unicode="&#x3b2;" horiz-adv-x="734" 
d="M-323 -901q-5 -15 -48 -29q-10 -3 -18.5 -8t-12.5 -8.5t-6 -3.5q-6 0 -6 6q0 4 137 308q160 353 337.5 697t322.5 541q215 290 380 290q53 0 76 -33t23 -77q0 -86 -82 -176.5t-170 -123.5q127 -32 127 -137q0 -70 -30 -132t-78 -105t-107 -74.5t-117 -46.5t-109 -15
q-35 0 -71.5 17t-36.5 41q0 7 1 21.5t1 20.5q-1 9 -4.5 21.5t-3.5 18.5q0 8 6 8q4 0 17 -18t30 -39t52.5 -39t80.5 -18q81 0 151 50.5t107.5 125t37.5 148.5q0 57 -29 96.5t-59 39.5q-20 0 -61 -6t-55 -6q-24 0 -24 10q0 9 12 22.5t20 13.5q11 0 36.5 -7t55.5 -7q20 0 52 12
t58 32q54 41 91 99t37 119q0 84 -78 84q-114 0 -227 -128q-235 -264 -632 -1156q-40 -88 -104 -245t-80 -204z" />
    <glyph glyph-name="sigma1" unicode="&#x3c2;" horiz-adv-x="516" 
d="M397 411q-96 0 -162.5 -74t-66.5 -155q0 -30 22 -54.5t49 -38.5t49 -37t22 -52q0 -48 -76 -95t-132 -47q-21 0 -38.5 8t-25 16.5t-7.5 12.5q0 3 1.5 5.5t4 4t8 4.5t10.5 7q7 5 15 12.5t12.5 12.5t6.5 5q4 0 4 -8q0 -14 22 -27t47 -13q13 0 29 3t35.5 19t19.5 42
q0 27 -23.5 51t-51.5 39.5t-51.5 42.5t-23.5 59q0 75 62.5 146t145.5 111t153 40q24 0 44 -12t28 -24t8 -18q0 -5 -4 -9t-16 -9.5t-16 -7.5q-7 -4 -12.5 -9.5t-8.5 -8t-5 -2.5q-4 0 -4 4q0 18 -23.5 37t-50.5 19z" />
    <glyph glyph-name="delta" unicode="&#x3b4;" horiz-adv-x="572" 
d="M448 435q-125 -31 -214 -118.5t-89 -197.5q0 -47 25.5 -67.5t61.5 -20.5q56 0 103 27t74 67.5t41.5 83t14.5 78.5q0 50 -17 148zM486 795q0 -79 18.5 -234t18.5 -200q0 -86 -48.5 -173.5t-128.5 -144.5t-162 -57q-50 0 -83.5 31.5t-33.5 83.5q0 53 27 104.5t69 90.5
t93.5 72t99.5 53.5t88 28.5q-4 20 -10 95.5t-6 152.5q0 95 23 173.5t59 129t82 85.5t89.5 50t84.5 15q66 0 96 -27t30 -61q0 -32 -23 -97t-35 -65q-3 0 -3 3q0 2 7.5 29t7.5 57q0 122 -115 122q-104 0 -174.5 -90.5t-70.5 -226.5z" />
    <glyph glyph-name="epsilon" unicode="&#x3b5;" horiz-adv-x="432" 
d="M464 108q62 48 136 140q4 6 8 6t4 -4q0 -2 -2 -6q-68 -92 -138 -146q-151 -118 -290 -118q-69 0 -112.5 28.5t-43.5 89.5q0 76 150 158q-10 9 -19 28.5t-9 30.5q0 53 60 94.5t130 41.5q33 0 56.5 -17.5t23.5 -29.5q0 -10 -20 -24l-20 -13l-8 -8q-1 0 -2 3.5t-2.5 9.5
t-3.5 9q-27 42 -72 42q-90 0 -90 -76q0 -24 17.5 -48t30.5 -24q5 0 17 1t17 1q16 0 16 -8q0 -10 -16 -18q-3 -1 -20.5 -10.5t-29.5 -9.5q-4 0 -15 1t-15 1q-21 0 -60.5 -37.5t-39.5 -75.5q0 -51 33.5 -80.5t90.5 -29.5q108 0 238 98z" />
    <glyph glyph-name="phi" unicode="&#x3c6;" horiz-adv-x="696" 
d="M302 390q0 -28 -26 -78t-52 -104t-26 -92q0 -79 74 -96q111 214 198 321t165 107q24 0 36.5 -20t12.5 -44q0 -87 -56 -177.5t-147.5 -153t-186.5 -71.5q-138 -276 -190.5 -427t-52.5 -246q0 -118 44 -162.5t120 -44.5q64 0 134.5 37t98.5 81q9 14 14 14q6 0 6 -4t-2 -8
q-39 -55 -133 -104.5t-178 -49.5q-77 0 -123.5 50.5t-46.5 163.5q0 109 57 254t210 444q-54 4 -91 42.5t-37 89.5t44 136q66 125 66 150q0 26 -28 26q-33 0 -72 -26q-9 -6 -10 -6q-4 0 -4 4t6 8q64 44 110 44q66 0 66 -58zM312 16q65 0 124.5 36t98 89t61 108.5t22.5 98.5
q0 24 -10.5 42t-27.5 18q-41 0 -99 -89t-169 -303z" />
    <glyph glyph-name="gamma" unicode="&#x3b3;" horiz-adv-x="540" 
d="M156 -122q193 339 367 527q71 77 121 77l32 -8q24 -7 24 -9q0 -1 -3.5 -1.5t-10 -2t-11.5 -2.5q-18 -5 -51.5 -28.5t-62.5 -53.5q-88 -88 -221.5 -265.5t-225.5 -357.5q-10 -19 -37.5 -71.5t-44.5 -88.5q-18 -38 -45.5 -108.5t-45.5 -109t-30 -38.5t-27.5 25.5
t-15.5 37.5q0 21 23 61.5t61 94t46 66.5q69 129 122.5 318t53.5 355q0 39 -4.5 64.5t-10 33.5t-11.5 8q-8 0 -14 -4q-9 -6 -10 -6q-4 0 -4 4t6 8q62 39 83 39q24 0 36 -15.5t12 -60.5q0 -181 -101 -489z" />
    <glyph glyph-name="eta" unicode="&#x3b7;" horiz-adv-x="630" 
d="M305 411q0 -39 -32 -97q52 50 122.5 94t116.5 44q31 0 54 -22t23 -52q0 -43 -74.5 -164t-74.5 -156q0 -16 9 -27t23 -11q40 0 94 27.5t96 60.5q62 48 136 140q4 6 8 6t4 -4q0 -2 -2 -6q-68 -92 -138 -146q-71 -57 -141.5 -87.5t-111.5 -30.5q-26 0 -43 15.5t-17 41.5
q0 41 37 108t74 129.5t37 94.5q0 21 -12.5 33t-27.5 12q-76 0 -209 -144l-148 -262q-3 -5 -9.5 -7t-19.5 -2.5t-22 -2.5q-12 -3 -24 -7t-16 -4t-4 4q0 1 1.5 2.5l4.5 4.5t6 7q13 18 51 83q63 109 92 162q16 31 38 83t22 69q0 32 -20 32q-23 0 -74 -34q-9 -6 -10 -6
q-4 0 -4 4t6 8q75 56 120 56q29 0 44 -13.5t15 -35.5z" />
    <glyph glyph-name="iota" unicode="&#x3b9;" horiz-adv-x="374" 
d="M305 411q0 -42 -76 -165t-76 -165q0 -55 75 -55q59 0 168 82q62 48 136 140q4 6 8 6t4 -4q0 -2 -2 -6q-68 -92 -138 -146q-51 -41 -114.5 -73.5t-119.5 -32.5q-44 0 -70.5 19.5t-26.5 57.5q0 43 38.5 114t77.5 133t39 84q0 32 -20 32q-23 0 -74 -34q-9 -6 -10 -6
q-4 0 -4 4t6 8q75 56 120 56q29 0 44 -13.5t15 -35.5z" />
    <glyph glyph-name="theta" unicode="&#x3b8;" horiz-adv-x="693" 
d="M616 394q26 43 69 130t92 221.5t49 214.5q0 52 -11.5 82t-44.5 30q-57 0 -113 -80.5t-87.5 -186.5t-31.5 -189q0 -89 17 -135.5t61 -86.5zM240 448q28 0 49 -12t21 -38q0 -39 -28.5 -88t-57 -102t-28.5 -102q0 -84 60 -84q37 0 73.5 17.5t63 39.5t59.5 63.5t50 68
t47.5 75t40.5 64.5q-114 58 -114 227q0 81 27 173.5t71.5 171t107.5 130.5t128 52q42 0 62 -37t20 -93q0 -68 -33 -167.5t-81 -193.5t-80 -152t-51 -87q25 -14 44 -14q65 0 128 44q9 6 10 6q4 0 4 -4t-6 -8q-91 -62 -174 -62q-7 0 -27 4q-120 -186 -213.5 -267t-196.5 -81
q-40 0 -68 27.5t-28 80.5q0 68 48 148q9 15 32 51t33.5 57.5t10.5 37.5t-13 25t-23 9q-29 0 -74 -30q-9 -6 -10 -6q-4 0 -4 4t6 8q59 44 114 44z" />
    <glyph glyph-name="kappa" unicode="&#x3ba;" horiz-adv-x="610" 
d="M306 401q0 -17 -15.5 -52t-33.5 -66.5t-38.5 -65.5t-23.5 -40h2l17 17q93 96 199.5 176t160.5 80q44 0 44 -21q0 -3 -1.5 -6t-5 -6.5t-6 -5.5t-9.5 -7t-10 -8q-5 -4 -10 -9.5t-8 -8t-6 -2.5q-4 0 -4 6q0 11 -33 11q-36 0 -76 -24t-115 -87q14 -17 21 -27.5t17.5 -34
t17.5 -55.5q23 -97 35 -116q16 -25 49 -25q27 0 79 27t89 57q62 48 136 140q4 6 8 6t4 -4q0 -2 -2 -6q-68 -92 -138 -146q-49 -41 -115.5 -77.5t-117.5 -36.5q-21 0 -36 8t-24.5 17.5t-17.5 33t-11.5 39t-10.5 51.5q-14 64 -46 94q-48 -44 -106 -118q-32 -54 -55 -101
q-2 -4 -11 -5.5t-27 -3t-20 -1.5q-9 -1 -19.5 -6t-12.5 -5q-4 0 -4 4q0 3 13.5 21t52 81.5t86.5 154.5q64 121 64 144q0 40 -24 40q-23 0 -74 -34q-9 -6 -10 -6q-4 0 -4 4t6 8q75 56 120 56q29 0 44.5 -16.5t15.5 -42.5z" />
    <glyph glyph-name="lambda" unicode="&#x3bb;" horiz-adv-x="776" 
d="M512 432q-112 -96 -201 -180q-84 -78 -178.5 -183.5t-123.5 -165.5q-1 -3 -2.5 -6.5t-2.5 -5.5t-3 -2q-5 0 -5 6q0 98 38 136q130 131 478 429v398q0 46 -5.5 86t-19.5 80.5t-42.5 64t-68.5 23.5q-64 0 -106 -42t-56 -81q-6 -14 -18 -14q-4 0 -4 3q0 12 19 40t48 58
t72 52.5t84 22.5q49 0 83.5 -28.5t50 -74t21.5 -85.5t6 -81v-435q0 -298 40 -369q23 -38 58 -38q48 0 134 68q62 48 136 140q4 6 8 6t4 -4q0 -2 -2 -6q-68 -92 -138 -146q-121 -98 -194 -98q-69 0 -89.5 101t-20.5 331z" />
    <glyph glyph-name="mu" unicode="&#x3bc;" horiz-adv-x="640" 
d="M84 44q0 32 17.5 91t42.5 109q101 202 129 202q16 0 16 -14q0 -73 -145 -358q0 -27 10 -38.5t44 -11.5q41 0 90 27t76.5 51t51.5 50q17 36 57.5 120.5t51.5 105.5q8 15 12 22t9.5 16t10.5 12.5t10 3.5q13 0 27.5 -6.5t14.5 -19.5q0 -17 -15.5 -41.5t-40.5 -60.5t-39 -65
q-56 -114 -56 -154q0 -58 46 -58q30 0 78 23t90 58q62 48 136 140q4 6 8 6t4 -4q0 -2 -2 -6q-68 -92 -138 -146q-59 -50 -119.5 -80.5t-104.5 -30.5q-71 0 -71 54q0 32 15 71q-54 -52 -125 -90t-125 -38q-32 0 -51 25q-181 -303 -411 -591q-64 -79 -111 -107
q-47 -29 -93 -29q-13 0 -13 4t6 7t20.5 10t27.5 16q116 80 268 278.5t291 446.5z" />
    <glyph glyph-name="mu" unicode="&#xb5;" horiz-adv-x="640" 
d="M84 44q0 32 17.5 91t42.5 109q101 202 129 202q16 0 16 -14q0 -73 -145 -358q0 -27 10 -38.5t44 -11.5q41 0 90 27t76.5 51t51.5 50q17 36 57.5 120.5t51.5 105.5q8 15 12 22t9.5 16t10.5 12.5t10 3.5q13 0 27.5 -6.5t14.5 -19.5q0 -17 -15.5 -41.5t-40.5 -60.5t-39 -65
q-56 -114 -56 -154q0 -58 46 -58q30 0 78 23t90 58q62 48 136 140q4 6 8 6t4 -4q0 -2 -2 -6q-68 -92 -138 -146q-59 -50 -119.5 -80.5t-104.5 -30.5q-71 0 -71 54q0 32 15 71q-54 -52 -125 -90t-125 -38q-32 0 -51 25q-181 -303 -411 -591q-64 -79 -111 -107
q-47 -29 -93 -29q-13 0 -13 4t6 7t20.5 10t27.5 16q116 80 268 278.5t291 446.5z" />
    <glyph glyph-name="nu" unicode="&#x3bd;" horiz-adv-x="540" 
d="M292 396q0 -40 -54 -160q-36 -80 -72 -176q36 30 136.5 108t155.5 128q106 102 106 190q0 31 -7.5 51.5t-16.5 28t-16.5 12.5t-7.5 8q0 2 6 6t16.5 7t19.5 3q21 0 45.5 -24t24.5 -62q0 -63 -39.5 -117.5t-110.5 -116.5q-48 -41 -144 -112.5t-132 -101.5
q-22 -19 -44.5 -42t-34 -34.5t-15.5 -11.5q-6 0 -11 10t-5 20q0 72 76 238q54 118 54 152q0 26 -22 26q-24 0 -66 -28q-9 -6 -10 -6q-4 0 -4 4t6 8q4 4 18.5 13.5t44 22t55.5 12.5q25 0 36.5 -16.5t11.5 -39.5z" />
    <glyph glyph-name="omicron" unicode="&#x3bf;" horiz-adv-x="560" 
d="M414 451q57 0 90.5 -36t33.5 -96q0 -66 -32.5 -129t-82.5 -107.5t-111.5 -71.5t-117.5 -27t-92 36.5t-36 92.5q0 82 55.5 162t136.5 128t156 48zM385 429q-53 0 -108 -48t-90.5 -119.5t-35.5 -137.5q0 -49 21 -81.5t53 -32.5q81 0 156.5 102.5t75.5 205.5q0 49 -19.5 80
t-52.5 31z" />
    <glyph glyph-name="pi" unicode="&#x3c0;" horiz-adv-x="634" 
d="M232 247q-86 -158 -124 -239q-3 -5 -10 -6.5t-19.5 -2.5t-21.5 -3q-8 -2 -16.5 -4.5t-13.5 -4t-9 -1.5q-6 0 -6 4q0 3 6.5 10t23 29t34.5 53q37 63 92 166q3 5 24.5 44.5t37 70.5t26.5 57q-89 0 -122 -22q-9 -6 -10 -6q-4 0 -4 4t6 8q66 44 133 44q41 0 124.5 -13
t132.5 -13q93 0 152 27q5 2 10 5.5t8 5t5 1.5l3 -3q0 -9 -51 -36t-87 -36q-71 -137 -100.5 -203t-29.5 -104q0 -59 50 -59q40 0 94 27.5t96 60.5q62 48 136 140q4 6 8 6t4 -4q0 -2 -2 -6q-68 -92 -138 -146q-72 -58 -135 -87t-103 -29q-41 0 -63.5 16.5t-22.5 64.5
q0 17 6 40t13.5 43.5t24 54.5t27 55t33.5 65t34 65q-84 0 -167 17q-20 -30 -89 -156z" />
    <glyph glyph-name="chi" unicode="&#x3c7;" horiz-adv-x="560" 
d="M636 -237q25 25 30 25t5 -5q0 -8 -25 -33q-38 -38 -92 -61.5t-107 -23.5q-45 0 -77.5 14.5t-52.5 46t-32 65.5t-17 89t-6 99.5t-2 113.5v24q-30 -26 -58 -52q-147 -137 -227 -240q-14 -17 -17 -17q-4 0 -4 4q0 3 2.5 9t6 15t4.5 13q4 10 6 19.5t3 13.5t5 10.5t12 15.5
q79 82 197 179q11 9 34.5 28t35.5 29q0 27 -2 94.5t-2 95.5q0 43 -12 70.5t-36 27.5q-23 0 -74 -34q-9 -6 -10 -6q-4 0 -4 4t6 8q75 56 120 56q81 0 81 -120q0 -14 -0.5 -40t-1.5 -62t-1 -54q17 15 234 184q74 58 91 81q1 2 3 7.5t4 9.5t4 4q3 0 3 -7q0 -18 -2 -46
q-1 -6 -50 -40q-133 -87 -288 -217q-1 -58 -1 -87q0 -84 5.5 -142.5t22 -116.5t52 -88t89.5 -30q75 0 145 67z" />
    <glyph glyph-name="rho" unicode="&#x3c1;" horiz-adv-x="547" 
d="M415 389q-54 0 -111 -37t-114 -107t-103.5 -142t-103.5 -171q-99 -174 -168.5 -333.5t-159.5 -407.5q-23 -61 -32 -93q-1 -3 -2.5 -5.5t-4 -4.5t-4.5 -3.5t-6.5 -3l-7.5 -2.5t-9 -3.5t-10 -3.5q-14 -5 -25 -11.5t-16.5 -10t-7.5 -3.5q-4 0 -4 7q0 12 50 124
q75 169 113.5 253.5t115.5 235.5t154 281q74 125 132.5 209.5t123.5 155t130.5 104t134.5 33.5q31 0 57 -22t26 -60q0 -110 -151 -246q-61 -56 -139.5 -98t-156.5 -42q-38 0 -38 14q0 9 16 30q2 3 5 8t4.5 8t3.5 5.5t4 2.5q1 0 2 -2.5t2.5 -6.5t3.5 -7q15 -22 53 -22
q65 0 139 56t121.5 129.5t47.5 125.5q0 66 -65 66z" />
    <glyph glyph-name="sigma" unicode="&#x3c3;" horiz-adv-x="600" 
d="M522 391q14 -28 14 -59q0 -88 -54.5 -170t-136 -130t-160.5 -48q-59 0 -90.5 34.5t-31.5 81.5q0 82 56 165t140 134.5t162 51.5q23 0 84 -12.5t106 -12.5q83 0 147 48q19 14 20 14q4 0 4 -4q0 -3 -28.5 -27t-75.5 -49.5t-85 -25.5q-17 0 -71 9zM440 406q-29 9 -57 9
q-47 0 -91.5 -32t-73.5 -72q-73 -101 -73 -195q0 -47 20 -76.5t51 -29.5q55 0 113 51.5t95 125t37 137.5q0 44 -21 82z" />
    <glyph glyph-name="tau" unicode="&#x3c4;" horiz-adv-x="470" 
d="M510 98q-52 -41 -137.5 -75.5t-150.5 -34.5q-54 0 -81.5 23t-27.5 78q0 62 55 159q56 98 100 165q-17 4 -64 4q-60 0 -90 -19q-9 -6 -10 -6q-4 0 -4 4t6 8q66 44 133 44q48 0 124 -5t113 -5q34 0 62 15q4 2 7.5 4.5t6 4t3.5 1.5l2 -2q0 -7 -15 -22.5t-45.5 -30.5
t-63.5 -15q-43 0 -113 8q-51 -83 -88 -154q-44 -84 -44 -136q0 -82 98 -82q52 0 116 25.5t100 53.5q66 53 136 140q4 6 8 6t4 -4q0 -2 -2 -6q-68 -92 -138 -146z" />
    <glyph glyph-name="upsilon" unicode="&#x3c5;" horiz-adv-x="622" 
d="M237 460q58 0 58 -64q0 -24 -18 -59.5t-39.5 -66.5t-39.5 -73.5t-18 -79.5q0 -51 29.5 -77t72.5 -26q59 0 104 29.5t69.5 79t36.5 105t12 116.5q0 26 -8 42t-8 29q0 4 2 7t6.5 6.5t7.5 5.5t9.5 5t8.5 4q6 4 14 10t13.5 9.5t8.5 3.5q8 0 8 -9q0 -7 -1 -17.5t-1 -21.5
q0 -19 17.5 -37.5t46.5 -18.5q60 0 120 42q9 6 10 6q4 0 4 -4t-6 -8q-27 -19 -69.5 -38.5t-72.5 -19.5q-13 0 -23.5 1.5t-14.5 2.5l-4 2q0 -150 -99 -258t-239 -108q-39 0 -66.5 14.5t-40 37t-18 42.5t-5.5 38q0 61 44 136q8 13 25 40t26 41.5t17 33.5t8 31q0 38 -25 38
q-14 0 -65 -34q-9 -6 -10 -6q-4 0 -4 4t6 8q75 56 111 56z" />
    <glyph glyph-name="uni200C" unicode="&#x200c;" horiz-adv-x="0" 
 />
    <glyph glyph-name="omega" unicode="&#x3c9;" horiz-adv-x="730" 
d="M595 415q0 13 30 29q5 3 10.5 6.5t9 6t7 4t5.5 1.5q6 0 6 -8q0 -7 -1 -13.5t-1 -19.5q0 -21 23.5 -41t65.5 -20q33 0 106 44q9 6 10 6q4 0 4 -4t-6 -8q-106 -74 -174 -74q4 -32 4 -54q0 -65 -20.5 -118.5t-50.5 -85.5t-66.5 -53.5t-66.5 -30t-52 -8.5q-65 0 -94 52
q-4 8 -12 30q-32 -27 -76.5 -47.5t-83.5 -20.5q-37 0 -69 24.5t-32 80.5q0 103 99 222q4 4 11.5 13t11.5 14l10 12.5t9.5 13t7.5 11.5t5.5 11t1.5 9q0 27 -26 27q-25 0 -67 -28q-9 -6 -10 -6q-4 0 -4 4t6 8q9 7 26 18t45.5 24.5t45.5 13.5q58 0 58 -39q0 -14 -11.5 -31
t-36 -43t-31.5 -35q-80 -101 -80 -191q0 -105 72 -105q60 0 112 74q0 38 6 68t15 46.5t18 27.5t15 14l6 4q4 3 18.5 8.5t17.5 5.5q14 0 14 -18q0 -51 -44 -118q2 -44 28.5 -82t65.5 -38q50 0 86 43t50 92t14 91q0 69 -23 121q-18 39 -18 60z" />
    <glyph glyph-name="xi" unicode="&#x3be;" horiz-adv-x="616" 
d="M300 -206q0 50 -22 91q-64 -34 -101.5 -54.5t-94.5 -55t-90.5 -63.5t-68 -65.5t-50.5 -75.5t-16 -80q0 -50 24.5 -75.5t63.5 -25.5q68 0 135.5 43.5t114 106t76 132t29.5 122.5zM360 -169q0 -89 -69.5 -201t-180.5 -194.5t-215 -82.5q-47 0 -79 29t-32 79q0 56 30 110
t75 96t111.5 85t125.5 74.5t132 67.5q2 0 3 0.5t2.5 1.5t3 1.5t2.5 1.5q-15 22 -43 50t-49 48.5t-37.5 53.5t-16.5 70q0 79 72 166.5t177 145.5q77 43 144 58q-45 16 -73 47.5t-28 67.5q0 59 74 134.5t207 132.5q-63 -12 -110 -12q-61 0 -103.5 26.5t-42.5 77.5q0 42 25 73
q11 14 41 24q7 2 15.5 6t13.5 6t7 2q4 0 4 -3q0 -1 -2.5 -3t-7 -5t-6.5 -6q-31 -37 -31 -69q0 -38 20.5 -59t47.5 -26.5t70 -5.5q71 0 129 26q26 12 144 80q33 19 54 19q23 0 23 -14q0 -13 -28.5 -33.5t-49.5 -29.5q-82 -36 -147 -62q-118 -47 -201 -118t-83 -149
q0 -39 49 -73.5t76 -34.5q5 0 19 3t18 3q25 0 25 -7q0 -28 -42 -28q-17 1 -36 1q-97 0 -208 -63q-48 -27 -84.5 -65t-55.5 -75.5t-28.5 -69t-9.5 -55.5q0 -40 16 -73t37 -52t46 -45.5t37 -51.5q128 63 166 83q93 49 146 93q71 59 136 140q4 6 8 6t4 -4q0 -2 -2 -6
q-52 -71 -138 -146q-45 -39 -155 -99q-6 -3 -158 -81q14 -35 16 -87z" />
    <glyph glyph-name="psi" unicode="&#x3c8;" horiz-adv-x="710" 
d="M307 -16q-126 -260 -171 -379t-45 -226q0 -221 169 -221q62 0 120.5 36t87.5 82q9 14 14 14q6 0 6 -4t-2 -8q-44 -62 -116.5 -109t-159.5 -47q-76 0 -131.5 52.5t-55.5 147.5q0 118 46.5 246t191.5 412q-40 0 -68.5 13t-42.5 34t-20 42t-6 43q0 51 44 136q66 125 66 150
q0 26 -28 26q-33 0 -72 -26q-9 -6 -10 -6q-4 0 -4 4t6 8q64 44 110 44q66 0 66 -58q0 -28 -26 -78t-52 -104t-26 -92q0 -94 81 -100q22 44 87 180.5t100 199.5q4 5 26.5 16t36.5 11q18 0 18 -6q0 -3 -33.5 -59t-90 -155.5t-100.5 -186.5q78 2 142.5 47t121.5 153
q120 230 240 230q12 0 21 -6t12.5 -11.5t3.5 -7.5q0 -3 -16 -12l-6 -4l-4.5 -3t-2.5 -1q-3 0 -3 4q-5 19 -38 19q-21 0 -40.5 -19t-32.5 -43.5t-36 -70t-42 -75.5q-52 -85 -141 -150.5t-195 -81.5z" />
    <glyph glyph-name="zeta" unicode="&#x3b6;" horiz-adv-x="624" 
d="M286 -115q-63 -33 -101 -54.5t-94 -55.5t-90 -63t-68 -65.5t-50 -75.5t-16 -80q0 -50 23.5 -75.5t62.5 -25.5q68 0 135.5 43.5t114.5 106t76 132t29 122.5q0 50 -22 91zM207 167q0 -44 25 -84t62 -81t51 -70q128 63 166 83q93 49 146 93q71 59 136 140q4 6 8 6t4 -4
q0 -2 -2 -6q-52 -71 -138 -146q-45 -39 -155 -99q-6 -3 -158 -81q16 -39 16 -87q0 -89 -69.5 -201t-180.5 -194.5t-215 -82.5q-47 0 -79 29t-32 79q0 56 30 110t75 96t111.5 85t125.5 74.5t132 67.5q2 0 3 0.5t2.5 1.5t3 1.5t2.5 1.5q-14 21 -43 51.5t-49.5 53.5t-37 59.5
t-16.5 77.5q0 50 14.5 102t34 96t57.5 96t67 88t81.5 85.5t81.5 76t87 72.5t78 61t73 55q-63 -12 -111 -12q-62 0 -105 26.5t-43 77.5q0 39 27 73q11 14 41 24q7 2 15.5 6t13.5 6t7 2q4 0 4 -3q0 -1 -2.5 -3t-7 -5t-6.5 -6q-26 -31 -26 -64q0 -54 34 -71t100 -17
q87 0 128 18q16 7 71.5 44.5t86.5 55.5q33 19 54 19q23 0 23 -14q0 -4 -3 -8.5t-9 -10t-12 -10t-15 -10t-14.5 -9t-14 -8.5t-10.5 -6q-25 -15 -80 -39.5t-83 -42.5q-71 -45 -136 -92.5t-146.5 -122t-139.5 -149t-98.5 -169t-40.5 -186.5z" />
    <glyph glyph-name="guillemotleft" unicode="&#xab;" horiz-adv-x="625" 
d="M558 479q2 0 5 -3t3 -6t-5 -9.5t-8 -8.5q-94 -75 -201 -159q-66 -51 -77 -61.5t-11 -19.5q0 -18 41 -129t41 -119q0 -2 -0.5 -3t-0.5 -2t-2 -1.5t-3.5 -0.5t-5 -0.5t-6.5 -1.5q-15 -2 -28.5 -5.5t-16.5 -3.5q-5 0 -7 4q-12 24 -40 128.5t-28 115.5q0 12 6 18
q44 30 128.5 98t146.5 118.5t69 50.5zM678 455q10 0 10 -12q0 -5 -12 -14q-42 -34 -106 -85q-95 -76 -113.5 -93t-18.5 -29q0 -19 24 -77.5t48.5 -110.5t24.5 -54q0 -5 -27.5 -10.5t-34.5 -5.5q-6 0 -8 4q-6 9 -43.5 112t-37.5 124q0 16 14 28q58 46 130.5 105.5t108 88.5
t41.5 29z" />
    <glyph glyph-name="uni037A" unicode="&#x37a;" horiz-adv-x="200" 
d="M34 -242q-54 -31 -97 -31q-22 0 -36.5 11.5t-14.5 33.5q0 32 46 104.5t46 85.5q0 15 -13 15q-15 0 -42 -15l-8 -4q-4 0 -4 4t7 7q46 31 79 31q16 0 26.5 -12t10.5 -27q0 -25 -42.5 -90t-42.5 -89q0 -33 29 -33q21 0 51 16l8 4q4 0 4 -4q0 -3 -7 -7z" />
    <glyph glyph-name="guillemotright" unicode="&#xbb;" horiz-adv-x="625" 
d="M197 -56q-2 0 -5 3t-3 6t5 9.5t8 8.5q94 75 201 159q66 51 77 61.5t11 19.5q0 18 -41 129t-41 119q0 2 0.5 3t0.5 2t2 1.5t3.5 0.5t5 0.5t6.5 1.5q15 2 28.5 5.5t16.5 3.5q5 0 7 -4q12 -24 40 -128.5t28 -115.5q0 -12 -6 -18q-44 -30 -128.5 -98t-146.5 -118.5t-69 -50.5
zM77 -32q-10 0 -10 12q0 5 12 14q42 34 106 85q95 76 113.5 93t18.5 29q0 19 -24.5 78t-48.5 110.5t-24 53.5q0 5 27 10.5t35 5.5q6 0 8 -4q6 -9 43.5 -112t37.5 -124q0 -16 -14 -28q-58 -46 -130.5 -105.5t-108 -88.5t-41.5 -29z" />
    <glyph glyph-name="uni1FC0" unicode="&#x1fc0;" 
d="M409 870q27 0 48 -20t40 -39.5t41 -19.5q38 0 76 55q10 14 18 17q10 3 14 3l2 -1q0 -4 -17.5 -25t-55 -44.5t-77.5 -23.5q-24 0 -44 19t-39 38t-40 19q-12 0 -23.5 -3.5t-18.5 -6.5t-18 -12.5t-15 -13t-16.5 -17.5t-14.5 -16q-4 -4 -12 -7q-9 -4 -11 -4t-2 2q0 7 42 43
q67 57 123 57z" />
    <glyph glyph-name="emdash" unicode="&#x2014;" horiz-adv-x="1560" 
d="M967 350q47 0 166.5 0.5t221 1t104.5 0.5q5 0 5 -2q0 -1 -0.5 -2.5t-3.5 -7t-6 -12.5q-13 -30 -20 -30q-5 0 -111 1.5t-256.5 3t-261.5 1.5q-83 0 -211 -0.5t-226 -1t-109 -0.5q-4 0 -4 2q0 1 1 2.5l5 7.5t9 14q15 26 22 26q14 0 281 -2t394 -2z" />
    <glyph glyph-name="uni1F70" unicode="&#x1f70;" horiz-adv-x="658" 
d="M531 551q0 -5 -8 -5q-6 0 -11 14l-50 154q-10 27 -10 42q0 8 8 20t16 12q9 0 12 -15l39 -199q4 -20 4 -23zM380 139q10 35 29 86.5t30 86t11 53.5q0 65 -57 65q-63 0 -124 -61t-95 -135.5t-34 -125.5q0 -36 14.5 -54.5t49.5 -18.5q33 0 73.5 24t102.5 80zM698 98
q-144 -113 -254 -113q-77 0 -77 74q0 10 9 52q-118 -115 -226 -115q-43 0 -68 28.5t-25 75.5q0 67 59 150.5t146 142t159 58.5q51 0 77 -20.5t26 -52.5q0 -19 -8.5 -44t-26.5 -62.5t-22 -47.5q35 42 78.5 91t50.5 58q26 30 50 38q29 10 38 10l2 -2q0 -2 -1 -3t-6 -3.5
t-10 -6.5q-13 -10 -45 -42q-65 -67 -170 -182q-16 -60 -16 -92q0 -34 14 -49t54 -15q35 0 87 24t97 58q62 48 136 140q4 6 8 6t4 -4q0 -2 -2 -6q-68 -92 -138 -146z" />
    <glyph glyph-name="uni1F01" unicode="&#x1f01;" horiz-adv-x="658" 
d="M514 568q10 -15 10 -16q0 -6 -8 -6q-4 0 -12.5 13.5t-16.5 39.5t-8 52q0 51 28.5 88t47.5 37q5 0 13.5 -7t8.5 -15q0 -2 -18.5 -18.5t-37.5 -47t-19 -66.5q0 -33 12 -54zM380 139q10 35 29 86.5t30 86t11 53.5q0 65 -57 65q-63 0 -124 -61t-95 -135.5t-34 -125.5
q0 -36 14.5 -54.5t49.5 -18.5q33 0 73.5 24t102.5 80zM698 98q-144 -113 -254 -113q-77 0 -77 74q0 10 9 52q-118 -115 -226 -115q-43 0 -68 28.5t-25 75.5q0 67 59 150.5t146 142t159 58.5q51 0 77 -20.5t26 -52.5q0 -19 -8.5 -44t-26.5 -62.5t-22 -47.5q35 42 78.5 91
t50.5 58q26 30 50 38q29 10 38 10l2 -2q0 -2 -1 -3t-6 -3.5t-10 -6.5q-13 -10 -45 -42q-65 -67 -170 -182q-16 -60 -16 -92q0 -34 14 -49t54 -15q35 0 87 24t97 58q62 48 136 140q4 6 8 6t4 -4q0 -2 -2 -6q-68 -92 -138 -146z" />
    <glyph glyph-name="uni1F00" unicode="&#x1f00;" horiz-adv-x="658" 
d="M494 568q42 42 42 109q0 23 -7 37.5t-14 22t-7 12.5q0 9 13 18t19 9q14 0 25 -23t11 -46q0 -35 -22 -75t-43.5 -63t-27.5 -23t-6 4q0 3 2.5 5.5t7.5 6.5t7 6zM380 139q10 35 29 86.5t30 86t11 53.5q0 65 -57 65q-63 0 -124 -61t-95 -135.5t-34 -125.5q0 -36 14.5 -54.5
t49.5 -18.5q33 0 73.5 24t102.5 80zM698 98q-144 -113 -254 -113q-77 0 -77 74q0 10 9 52q-118 -115 -226 -115q-43 0 -68 28.5t-25 75.5q0 67 59 150.5t146 142t159 58.5q51 0 77 -20.5t26 -52.5q0 -19 -8.5 -44t-26.5 -62.5t-22 -47.5q35 42 78.5 91t50.5 58q26 30 50 38
q29 10 38 10l2 -2q0 -2 -1 -3t-6 -3.5t-10 -6.5q-13 -10 -45 -42q-65 -67 -170 -182q-16 -60 -16 -92q0 -34 14 -49t54 -15q35 0 87 24t97 58q62 48 136 140q4 6 8 6t4 -4q0 -2 -2 -6q-68 -92 -138 -146z" />
    <glyph glyph-name="uni1F03" unicode="&#x1f03;" horiz-adv-x="658" 
d="M615 552q0 -5 -8 -5q-6 0 -11 14l-50 154q-10 27 -10 42q0 8 8 20t16 12q9 0 12 -15l39 -199q4 -20 4 -23zM444 568q10 -15 10 -16q0 -6 -8 -6q-4 0 -12.5 13.5t-16.5 39.5t-8 52q0 51 28.5 88t47.5 37q5 0 13.5 -7t8.5 -15q0 -2 -18.5 -18.5t-37.5 -47t-19 -66.5
q0 -33 12 -54zM380 139q10 35 29 86.5t30 86t11 53.5q0 65 -57 65q-63 0 -124 -61t-95 -135.5t-34 -125.5q0 -36 14.5 -54.5t49.5 -18.5q33 0 73.5 24t102.5 80zM698 98q-144 -113 -254 -113q-77 0 -77 74q0 10 9 52q-118 -115 -226 -115q-43 0 -68 28.5t-25 75.5
q0 67 59 150.5t146 142t159 58.5q51 0 77 -20.5t26 -52.5q0 -19 -8.5 -44t-26.5 -62.5t-22 -47.5q35 42 78.5 91t50.5 58q26 30 50 38q29 10 38 10l2 -2q0 -2 -1 -3t-6 -3.5t-10 -6.5q-13 -10 -45 -42q-65 -67 -170 -182q-16 -60 -16 -92q0 -34 14 -49t54 -15q35 0 87 24
t97 58q62 48 136 140q4 6 8 6t4 -4q0 -2 -2 -6q-68 -92 -138 -146z" />
    <glyph glyph-name="uni1FB2" unicode="&#x1fb2;" horiz-adv-x="658" 
d="M182 -100q6 0 6 -6q0 -4 -15.5 -16.5t-31 -35t-15.5 -48.5q0 -24 18.5 -41t45.5 -17q12 0 29 4l17 5q2 0 2 -3q0 -2 -16 -8t-37.5 -11t-34.5 -5q-86 0 -86 58q0 33 29 64t56 45.5t33 14.5zM380 139q10 35 29 86.5t30 86t11 53.5q0 65 -57 65q-63 0 -124 -61t-95 -135.5
t-34 -125.5q0 -36 14.5 -54.5t49.5 -18.5q33 0 73.5 24t102.5 80zM698 98q-144 -113 -254 -113q-77 0 -77 74q0 10 9 52q-118 -115 -226 -115q-43 0 -68 28.5t-25 75.5q0 67 59 150.5t146 142t159 58.5q51 0 77 -20.5t26 -52.5q0 -19 -8.5 -44t-26.5 -62.5t-22 -47.5
q35 42 78.5 91t50.5 58q26 30 50 38q29 10 38 10l2 -2q0 -2 -1 -3t-6 -3.5t-10 -6.5q-13 -10 -45 -42q-65 -67 -170 -182q-16 -60 -16 -92q0 -34 14 -49t54 -15q35 0 87 24t97 58q62 48 136 140q4 6 8 6t4 -4q0 -2 -2 -6q-68 -92 -138 -146zM531 551q0 -5 -8 -5q-6 0 -11 14
l-50 154q-10 27 -10 42q0 8 8 20t16 12q9 0 12 -15l39 -199q4 -20 4 -23z" />
    <glyph glyph-name="uni1F81" unicode="&#x1f81;" horiz-adv-x="658" 
d="M182 -100q6 0 6 -6q0 -4 -15.5 -16.5t-31 -35t-15.5 -48.5q0 -24 18.5 -41t45.5 -17q12 0 29 4l17 5q2 0 2 -3q0 -2 -16 -8t-37.5 -11t-34.5 -5q-86 0 -86 58q0 33 29 64t56 45.5t33 14.5zM380 139q10 35 29 86.5t30 86t11 53.5q0 65 -57 65q-63 0 -124 -61t-95 -135.5
t-34 -125.5q0 -36 14.5 -54.5t49.5 -18.5q33 0 73.5 24t102.5 80zM698 98q-144 -113 -254 -113q-77 0 -77 74q0 10 9 52q-118 -115 -226 -115q-43 0 -68 28.5t-25 75.5q0 67 59 150.5t146 142t159 58.5q51 0 77 -20.5t26 -52.5q0 -19 -8.5 -44t-26.5 -62.5t-22 -47.5
q35 42 78.5 91t50.5 58q26 30 50 38q29 10 38 10l2 -2q0 -2 -1 -3t-6 -3.5t-10 -6.5q-13 -10 -45 -42q-65 -67 -170 -182q-16 -60 -16 -92q0 -34 14 -49t54 -15q35 0 87 24t97 58q62 48 136 140q4 6 8 6t4 -4q0 -2 -2 -6q-68 -92 -138 -146zM514 568q10 -15 10 -16
q0 -6 -8 -6q-4 0 -12.5 13.5t-16.5 39.5t-8 52q0 51 28.5 88t47.5 37q5 0 13.5 -7t8.5 -15q0 -2 -18.5 -18.5t-37.5 -47t-19 -66.5q0 -33 12 -54z" />
    <glyph glyph-name="uni1F80" unicode="&#x1f80;" horiz-adv-x="658" 
d="M182 -100q6 0 6 -6q0 -4 -15.5 -16.5t-31 -35t-15.5 -48.5q0 -24 18.5 -41t45.5 -17q12 0 29 4l17 5q2 0 2 -3q0 -2 -16 -8t-37.5 -11t-34.5 -5q-86 0 -86 58q0 33 29 64t56 45.5t33 14.5zM380 139q10 35 29 86.5t30 86t11 53.5q0 65 -57 65q-63 0 -124 -61t-95 -135.5
t-34 -125.5q0 -36 14.5 -54.5t49.5 -18.5q33 0 73.5 24t102.5 80zM698 98q-144 -113 -254 -113q-77 0 -77 74q0 10 9 52q-118 -115 -226 -115q-43 0 -68 28.5t-25 75.5q0 67 59 150.5t146 142t159 58.5q51 0 77 -20.5t26 -52.5q0 -19 -8.5 -44t-26.5 -62.5t-22 -47.5
q35 42 78.5 91t50.5 58q26 30 50 38q29 10 38 10l2 -2q0 -2 -1 -3t-6 -3.5t-10 -6.5q-13 -10 -45 -42q-65 -67 -170 -182q-16 -60 -16 -92q0 -34 14 -49t54 -15q35 0 87 24t97 58q62 48 136 140q4 6 8 6t4 -4q0 -2 -2 -6q-68 -92 -138 -146zM494 568q42 42 42 109
q0 23 -7 37.5t-14 22t-7 12.5q0 9 13 18t19 9q14 0 25 -23t11 -46q0 -35 -22 -75t-43.5 -63t-27.5 -23t-6 4q0 3 2.5 5.5t7.5 6.5t7 6z" />
    <glyph glyph-name="uni1F83" unicode="&#x1f83;" horiz-adv-x="658" 
d="M182 -100q6 0 6 -6q0 -4 -15.5 -16.5t-31 -35t-15.5 -48.5q0 -24 18.5 -41t45.5 -17q12 0 29 4l17 5q2 0 2 -3q0 -2 -16 -8t-37.5 -11t-34.5 -5q-86 0 -86 58q0 33 29 64t56 45.5t33 14.5zM380 139q10 35 29 86.5t30 86t11 53.5q0 65 -57 65q-63 0 -124 -61t-95 -135.5
t-34 -125.5q0 -36 14.5 -54.5t49.5 -18.5q33 0 73.5 24t102.5 80zM698 98q-144 -113 -254 -113q-77 0 -77 74q0 10 9 52q-118 -115 -226 -115q-43 0 -68 28.5t-25 75.5q0 67 59 150.5t146 142t159 58.5q51 0 77 -20.5t26 -52.5q0 -19 -8.5 -44t-26.5 -62.5t-22 -47.5
q35 42 78.5 91t50.5 58q26 30 50 38q29 10 38 10l2 -2q0 -2 -1 -3t-6 -3.5t-10 -6.5q-13 -10 -45 -42q-65 -67 -170 -182q-16 -60 -16 -92q0 -34 14 -49t54 -15q35 0 87 24t97 58q62 48 136 140q4 6 8 6t4 -4q0 -2 -2 -6q-68 -92 -138 -146zM615 552q0 -5 -8 -5q-6 0 -11 14
l-50 154q-10 27 -10 42q0 8 8 20t16 12q9 0 12 -15l39 -199q4 -20 4 -23zM444 568q10 -15 10 -16q0 -6 -8 -6q-4 0 -12.5 13.5t-16.5 39.5t-8 52q0 51 28.5 88t47.5 37q5 0 13.5 -7t8.5 -15q0 -2 -18.5 -18.5t-37.5 -47t-19 -66.5q0 -33 12 -54z" />
    <glyph glyph-name="alphatonos" unicode="&#x3ac;" horiz-adv-x="658" 
d="M471 573l186 189q24 24 28 24t9.5 -11t5.5 -16q0 -12 -10 -19l-211 -180q-13 -13 -20 -13q-5 0 -5 5q0 4 17 21zM380 139q10 35 29 86.5t30 86t11 53.5q0 65 -57 65q-63 0 -124 -61t-95 -135.5t-34 -125.5q0 -36 14.5 -54.5t49.5 -18.5q33 0 73.5 24t102.5 80zM698 98
q-144 -113 -254 -113q-77 0 -77 74q0 10 9 52q-118 -115 -226 -115q-43 0 -68 28.5t-25 75.5q0 67 59 150.5t146 142t159 58.5q51 0 77 -20.5t26 -52.5q0 -19 -8.5 -44t-26.5 -62.5t-22 -47.5q35 42 78.5 91t50.5 58q26 30 50 38q29 10 38 10l2 -2q0 -2 -1 -3t-6 -3.5
t-10 -6.5q-13 -10 -45 -42q-65 -67 -170 -182q-16 -60 -16 -92q0 -34 14 -49t54 -15q35 0 87 24t97 58q62 48 136 140q4 6 8 6t4 -4q0 -2 -2 -6q-68 -92 -138 -146z" />
    <glyph glyph-name="uni1F05" unicode="&#x1f05;" horiz-adv-x="658" 
d="M520 573l186 189q24 24 28 24t9.5 -11t5.5 -16q0 -12 -10 -19l-211 -180q-13 -13 -20 -13q-5 0 -5 5q0 4 17 21zM462 568q10 -15 10 -16q0 -6 -8 -6q-4 0 -12.5 13.5t-16.5 39.5t-8 52q0 51 28.5 88t47.5 37q5 0 13.5 -7t8.5 -15q0 -2 -18.5 -18.5t-37.5 -47t-19 -66.5
q0 -33 12 -54zM380 139q10 35 29 86.5t30 86t11 53.5q0 65 -57 65q-63 0 -124 -61t-95 -135.5t-34 -125.5q0 -36 14.5 -54.5t49.5 -18.5q33 0 73.5 24t102.5 80zM698 98q-144 -113 -254 -113q-77 0 -77 74q0 10 9 52q-118 -115 -226 -115q-43 0 -68 28.5t-25 75.5
q0 67 59 150.5t146 142t159 58.5q51 0 77 -20.5t26 -52.5q0 -19 -8.5 -44t-26.5 -62.5t-22 -47.5q35 42 78.5 91t50.5 58q26 30 50 38q29 10 38 10l2 -2q0 -2 -1 -3t-6 -3.5t-10 -6.5q-13 -10 -45 -42q-65 -67 -170 -182q-16 -60 -16 -92q0 -34 14 -49t54 -15q35 0 87 24
t97 58q62 48 136 140q4 6 8 6t4 -4q0 -2 -2 -6q-68 -92 -138 -146z" />
    <glyph glyph-name="uni1F04" unicode="&#x1f04;" horiz-adv-x="658" 
d="M436 568q42 42 42 109q0 23 -7 37.5t-14 22t-7 12.5q0 9 13 18t19 9q14 0 25 -23t11 -46q0 -35 -22 -75t-43.5 -63t-27.5 -23t-6 4q0 3 2.5 5.5t7.5 6.5t7 6zM520 573l186 189q24 24 28 24t9.5 -11t5.5 -16q0 -12 -10 -19l-211 -180q-13 -13 -20 -13q-5 0 -5 5q0 4 17 21
zM380 139q10 35 29 86.5t30 86t11 53.5q0 65 -57 65q-63 0 -124 -61t-95 -135.5t-34 -125.5q0 -36 14.5 -54.5t49.5 -18.5q33 0 73.5 24t102.5 80zM698 98q-144 -113 -254 -113q-77 0 -77 74q0 10 9 52q-118 -115 -226 -115q-43 0 -68 28.5t-25 75.5q0 67 59 150.5t146 142
t159 58.5q51 0 77 -20.5t26 -52.5q0 -19 -8.5 -44t-26.5 -62.5t-22 -47.5q35 42 78.5 91t50.5 58q26 30 50 38q29 10 38 10l2 -2q0 -2 -1 -3t-6 -3.5t-10 -6.5q-13 -10 -45 -42q-65 -67 -170 -182q-16 -60 -16 -92q0 -34 14 -49t54 -15q35 0 87 24t97 58q62 48 136 140
q4 6 8 6t4 -4q0 -2 -2 -6q-68 -92 -138 -146z" />
    <glyph glyph-name="uni1F02" unicode="&#x1f02;" horiz-adv-x="658" 
d="M605 552q0 -5 -8 -5q-6 0 -11 14l-50 154q-10 27 -10 42q0 8 8 20t16 12q9 0 12 -15l39 -199q4 -20 4 -23zM430 568q42 42 42 109q0 23 -7 37.5t-14 22t-7 12.5q0 9 13 18t19 9q14 0 25 -23t11 -46q0 -35 -22 -75t-43.5 -63t-27.5 -23t-6 4q0 3 2.5 5.5t7.5 6.5t7 6z
M380 139q10 35 29 86.5t30 86t11 53.5q0 65 -57 65q-63 0 -124 -61t-95 -135.5t-34 -125.5q0 -36 14.5 -54.5t49.5 -18.5q33 0 73.5 24t102.5 80zM698 98q-144 -113 -254 -113q-77 0 -77 74q0 10 9 52q-118 -115 -226 -115q-43 0 -68 28.5t-25 75.5q0 67 59 150.5t146 142
t159 58.5q51 0 77 -20.5t26 -52.5q0 -19 -8.5 -44t-26.5 -62.5t-22 -47.5q35 42 78.5 91t50.5 58q26 30 50 38q29 10 38 10l2 -2q0 -2 -1 -3t-6 -3.5t-10 -6.5q-13 -10 -45 -42q-65 -67 -170 -182q-16 -60 -16 -92q0 -34 14 -49t54 -15q35 0 87 24t97 58q62 48 136 140
q4 6 8 6t4 -4q0 -2 -2 -6q-68 -92 -138 -146z" />
    <glyph glyph-name="uni1FB4" unicode="&#x1fb4;" horiz-adv-x="658" 
d="M182 -100q6 0 6 -6q0 -4 -15.5 -16.5t-31 -35t-15.5 -48.5q0 -24 18.5 -41t45.5 -17q12 0 29 4l17 5q2 0 2 -3q0 -2 -16 -8t-37.5 -11t-34.5 -5q-86 0 -86 58q0 33 29 64t56 45.5t33 14.5zM380 139q10 35 29 86.5t30 86t11 53.5q0 65 -57 65q-63 0 -124 -61t-95 -135.5
t-34 -125.5q0 -36 14.5 -54.5t49.5 -18.5q33 0 73.5 24t102.5 80zM698 98q-144 -113 -254 -113q-77 0 -77 74q0 10 9 52q-118 -115 -226 -115q-43 0 -68 28.5t-25 75.5q0 67 59 150.5t146 142t159 58.5q51 0 77 -20.5t26 -52.5q0 -19 -8.5 -44t-26.5 -62.5t-22 -47.5
q35 42 78.5 91t50.5 58q26 30 50 38q29 10 38 10l2 -2q0 -2 -1 -3t-6 -3.5t-10 -6.5q-13 -10 -45 -42q-65 -67 -170 -182q-16 -60 -16 -92q0 -34 14 -49t54 -15q35 0 87 24t97 58q62 48 136 140q4 6 8 6t4 -4q0 -2 -2 -6q-68 -92 -138 -146zM455 573l186 189q24 24 28 24
t9.5 -11t5.5 -16q0 -12 -10 -19l-211 -180q-13 -13 -20 -13q-5 0 -5 5q0 4 17 21z" />
    <glyph glyph-name="uni1F85" unicode="&#x1f85;" horiz-adv-x="658" 
d="M182 -100q6 0 6 -6q0 -4 -15.5 -16.5t-31 -35t-15.5 -48.5q0 -24 18.5 -41t45.5 -17q12 0 29 4l17 5q2 0 2 -3q0 -2 -16 -8t-37.5 -11t-34.5 -5q-86 0 -86 58q0 33 29 64t56 45.5t33 14.5zM380 139q10 35 29 86.5t30 86t11 53.5q0 65 -57 65q-63 0 -124 -61t-95 -135.5
t-34 -125.5q0 -36 14.5 -54.5t49.5 -18.5q33 0 73.5 24t102.5 80zM698 98q-144 -113 -254 -113q-77 0 -77 74q0 10 9 52q-118 -115 -226 -115q-43 0 -68 28.5t-25 75.5q0 67 59 150.5t146 142t159 58.5q51 0 77 -20.5t26 -52.5q0 -19 -8.5 -44t-26.5 -62.5t-22 -47.5
q35 42 78.5 91t50.5 58q26 30 50 38q29 10 38 10l2 -2q0 -2 -1 -3t-6 -3.5t-10 -6.5q-13 -10 -45 -42q-65 -67 -170 -182q-16 -60 -16 -92q0 -34 14 -49t54 -15q35 0 87 24t97 58q62 48 136 140q4 6 8 6t4 -4q0 -2 -2 -6q-68 -92 -138 -146zM520 573l186 189q24 24 28 24
t9.5 -11t5.5 -16q0 -12 -10 -19l-211 -180q-13 -13 -20 -13q-5 0 -5 5q0 4 17 21zM462 568q10 -15 10 -16q0 -6 -8 -6q-4 0 -12.5 13.5t-16.5 39.5t-8 52q0 51 28.5 88t47.5 37q5 0 13.5 -7t8.5 -15q0 -2 -18.5 -18.5t-37.5 -47t-19 -66.5q0 -33 12 -54z" />
    <glyph glyph-name="uni1F84" unicode="&#x1f84;" horiz-adv-x="658" 
d="M182 -100q6 0 6 -6q0 -4 -15.5 -16.5t-31 -35t-15.5 -48.5q0 -24 18.5 -41t45.5 -17q12 0 29 4l17 5q2 0 2 -3q0 -2 -16 -8t-37.5 -11t-34.5 -5q-86 0 -86 58q0 33 29 64t56 45.5t33 14.5zM380 139q10 35 29 86.5t30 86t11 53.5q0 65 -57 65q-63 0 -124 -61t-95 -135.5
t-34 -125.5q0 -36 14.5 -54.5t49.5 -18.5q33 0 73.5 24t102.5 80zM698 98q-144 -113 -254 -113q-77 0 -77 74q0 10 9 52q-118 -115 -226 -115q-43 0 -68 28.5t-25 75.5q0 67 59 150.5t146 142t159 58.5q51 0 77 -20.5t26 -52.5q0 -19 -8.5 -44t-26.5 -62.5t-22 -47.5
q35 42 78.5 91t50.5 58q26 30 50 38q29 10 38 10l2 -2q0 -2 -1 -3t-6 -3.5t-10 -6.5q-13 -10 -45 -42q-65 -67 -170 -182q-16 -60 -16 -92q0 -34 14 -49t54 -15q35 0 87 24t97 58q62 48 136 140q4 6 8 6t4 -4q0 -2 -2 -6q-68 -92 -138 -146zM436 568q42 42 42 109
q0 23 -7 37.5t-14 22t-7 12.5q0 9 13 18t19 9q14 0 25 -23t11 -46q0 -35 -22 -75t-43.5 -63t-27.5 -23t-6 4q0 3 2.5 5.5t7.5 6.5t7 6zM520 573l186 189q24 24 28 24t9.5 -11t5.5 -16q0 -12 -10 -19l-211 -180q-13 -13 -20 -13q-5 0 -5 5q0 4 17 21z" />
    <glyph glyph-name="uni1F82" unicode="&#x1f82;" horiz-adv-x="658" 
d="M182 -100q6 0 6 -6q0 -4 -15.5 -16.5t-31 -35t-15.5 -48.5q0 -24 18.5 -41t45.5 -17q12 0 29 4l17 5q2 0 2 -3q0 -2 -16 -8t-37.5 -11t-34.5 -5q-86 0 -86 58q0 33 29 64t56 45.5t33 14.5zM380 139q10 35 29 86.5t30 86t11 53.5q0 65 -57 65q-63 0 -124 -61t-95 -135.5
t-34 -125.5q0 -36 14.5 -54.5t49.5 -18.5q33 0 73.5 24t102.5 80zM698 98q-144 -113 -254 -113q-77 0 -77 74q0 10 9 52q-118 -115 -226 -115q-43 0 -68 28.5t-25 75.5q0 67 59 150.5t146 142t159 58.5q51 0 77 -20.5t26 -52.5q0 -19 -8.5 -44t-26.5 -62.5t-22 -47.5
q35 42 78.5 91t50.5 58q26 30 50 38q29 10 38 10l2 -2q0 -2 -1 -3t-6 -3.5t-10 -6.5q-13 -10 -45 -42q-65 -67 -170 -182q-16 -60 -16 -92q0 -34 14 -49t54 -15q35 0 87 24t97 58q62 48 136 140q4 6 8 6t4 -4q0 -2 -2 -6q-68 -92 -138 -146zM605 552q0 -5 -8 -5q-6 0 -11 14
l-50 154q-10 27 -10 42q0 8 8 20t16 12q9 0 12 -15l39 -199q4 -20 4 -23zM430 568q42 42 42 109q0 23 -7 37.5t-14 22t-7 12.5q0 9 13 18t19 9q14 0 25 -23t11 -46q0 -35 -22 -75t-43.5 -63t-27.5 -23t-6 4q0 3 2.5 5.5t7.5 6.5t7 6z" />
    <glyph glyph-name="uni1FB6" unicode="&#x1fb6;" horiz-adv-x="658" 
d="M502 690q27 0 48 -20t40 -39.5t41 -19.5q38 0 76 55q10 14 18 17q10 3 14 3l2 -1q0 -4 -17.5 -25t-55 -44.5t-77.5 -23.5q-24 0 -44 19t-38.5 38t-40.5 19q-12 0 -23.5 -3.5t-18.5 -6.5t-18 -12.5t-15 -13t-16.5 -17.5t-14.5 -16q-4 -4 -12 -7q-9 -4 -11 -4t-2 2
q0 7 42 43q67 57 123 57zM380 139q10 35 29 86.5t30 86t11 53.5q0 65 -57 65q-63 0 -124 -61t-95 -135.5t-34 -125.5q0 -36 14.5 -54.5t49.5 -18.5q33 0 73.5 24t102.5 80zM698 98q-144 -113 -254 -113q-77 0 -77 74q0 10 9 52q-118 -115 -226 -115q-43 0 -68 28.5t-25 75.5
q0 67 59 150.5t146 142t159 58.5q51 0 77 -20.5t26 -52.5q0 -19 -8.5 -44t-26.5 -62.5t-22 -47.5q35 42 78.5 91t50.5 58q26 30 50 38q29 10 38 10l2 -2q0 -2 -1 -3t-6 -3.5t-10 -6.5q-13 -10 -45 -42q-65 -67 -170 -182q-16 -60 -16 -92q0 -34 14 -49t54 -15q35 0 87 24
t97 58q62 48 136 140q4 6 8 6t4 -4q0 -2 -2 -6q-68 -92 -138 -146z" />
    <glyph glyph-name="uni1F07" unicode="&#x1f07;" horiz-adv-x="658" 
d="M548 840q27 0 48 -20t40 -39.5t41 -19.5q38 0 76 55q10 14 18 17q10 3 14 3l2 -1q0 -4 -17.5 -25t-55 -44.5t-77.5 -23.5q-24 0 -44 19t-38.5 38t-40.5 19q-12 0 -23.5 -3.5t-18.5 -6.5t-18 -12.5t-15 -13t-16.5 -17.5t-14.5 -16q-4 -4 -12 -7q-9 -4 -11 -4t-2 2
q0 7 42 43q67 57 123 57zM513 576q2 -3 6.5 -8.5t8 -9.5t3.5 -7q0 -4 -4 -4q-10 0 -26 31q-22 36 -22 74t24 62q20 20 34 20q6 0 14 -10t8 -20q0 -5 -2 -6.5t-9 -3.5t-11 -4q-37 -17 -37 -67q0 -25 13 -47zM380 139q10 35 29 86.5t30 86t11 53.5q0 65 -57 65q-63 0 -124 -61
t-95 -135.5t-34 -125.5q0 -36 14.5 -54.5t49.5 -18.5q33 0 73.5 24t102.5 80zM698 98q-144 -113 -254 -113q-77 0 -77 74q0 10 9 52q-118 -115 -226 -115q-43 0 -68 28.5t-25 75.5q0 67 59 150.5t146 142t159 58.5q51 0 77 -20.5t26 -52.5q0 -19 -8.5 -44t-26.5 -62.5
t-22 -47.5q35 42 78.5 91t50.5 58q26 30 50 38q29 10 38 10l2 -2q0 -2 -1 -3t-6 -3.5t-10 -6.5q-13 -10 -45 -42q-65 -67 -170 -182q-16 -60 -16 -92q0 -34 14 -49t54 -15q35 0 87 24t97 58q62 48 136 140q4 6 8 6t4 -4q0 -2 -2 -6q-68 -92 -138 -146z" />
    <glyph glyph-name="uni1F06" unicode="&#x1f06;" horiz-adv-x="658" 
d="M548 840q27 0 48 -20t40 -39.5t41 -19.5q38 0 76 55q10 14 18 17q10 3 14 3l2 -1q0 -4 -17.5 -25t-55 -44.5t-77.5 -23.5q-24 0 -44 19t-38.5 38t-40.5 19q-12 0 -23.5 -3.5t-18.5 -6.5t-18 -12.5t-15 -13t-16.5 -17.5t-14.5 -16q-4 -4 -12 -7q-9 -4 -11 -4t-2 2
q0 7 42 43q67 57 123 57zM503 571q32 29 32 70q0 32 -20 50q-3 2 -6.5 5t-5.5 4.5t-3.5 3t-1.5 3.5q0 9 11 18t17 9q9 0 20 -15q19 -23 19 -54q0 -52 -50 -96q-24 -22 -32 -22q-6 0 -6 4q0 3 4.5 6t11.5 7t10 7zM380 139q10 35 29 86.5t30 86t11 53.5q0 65 -57 65
q-63 0 -124 -61t-95 -135.5t-34 -125.5q0 -36 14.5 -54.5t49.5 -18.5q33 0 73.5 24t102.5 80zM698 98q-144 -113 -254 -113q-77 0 -77 74q0 10 9 52q-118 -115 -226 -115q-43 0 -68 28.5t-25 75.5q0 67 59 150.5t146 142t159 58.5q51 0 77 -20.5t26 -52.5q0 -19 -8.5 -44
t-26.5 -62.5t-22 -47.5q35 42 78.5 91t50.5 58q26 30 50 38q29 10 38 10l2 -2q0 -2 -1 -3t-6 -3.5t-10 -6.5q-13 -10 -45 -42q-65 -67 -170 -182q-16 -60 -16 -92q0 -34 14 -49t54 -15q35 0 87 24t97 58q62 48 136 140q4 6 8 6t4 -4q0 -2 -2 -6q-68 -92 -138 -146z" />
    <glyph glyph-name="uni03DD" unicode="&#x3dd;" horiz-adv-x="568" 
d="M40 -198q-58 -127 -155.5 -216t-192.5 -89q-50 0 -79.5 23.5t-29.5 43.5q0 4 2 8t5 6.5t8.5 8l9.5 9.5q3 3 9 13t10.5 17t7.5 7q5 0 5 -4q0 -1 -1 -5.5t-1 -7.5q0 -26 28.5 -53t68.5 -27q127 0 222 232q17 42 71 170.5t84 206.5q50 127 152 216t206 89q51 0 88 -24
t37 -43q0 -14 -25 -34q-5 -4 -12 -11.5t-12 -13t-6 -5.5q-5 0 -5 3q0 1 1 3.5t1 5.5q0 26 -32 53t-78 27q-67 0 -118 -41.5t-94 -141.5q126 6 197 6q3 0 5 -1t4 -4t3 -5.5t3.5 -8t4.5 -9.5q2 -3 3.5 -5.5t2.5 -3.5t1.5 -2t1 -1.5t0.5 -1.5q0 -4 -5 -4q-1 0 -32 3t-86.5 6
t-114.5 3q-79 -216 -163 -398z" />
    <glyph glyph-name="uni1FB7" unicode="&#x1fb7;" horiz-adv-x="658" 
d="M182 -100q6 0 6 -6q0 -4 -15.5 -16.5t-31 -35t-15.5 -48.5q0 -24 18.5 -41t45.5 -17q12 0 29 4l17 5q2 0 2 -3q0 -2 -16 -8t-37.5 -11t-34.5 -5q-86 0 -86 58q0 33 29 64t56 45.5t33 14.5zM380 139q10 35 29 86.5t30 86t11 53.5q0 65 -57 65q-63 0 -124 -61t-95 -135.5
t-34 -125.5q0 -36 14.5 -54.5t49.5 -18.5q33 0 73.5 24t102.5 80zM698 98q-144 -113 -254 -113q-77 0 -77 74q0 10 9 52q-118 -115 -226 -115q-43 0 -68 28.5t-25 75.5q0 67 59 150.5t146 142t159 58.5q51 0 77 -20.5t26 -52.5q0 -19 -8.5 -44t-26.5 -62.5t-22 -47.5
q35 42 78.5 91t50.5 58q26 30 50 38q29 10 38 10l2 -2q0 -2 -1 -3t-6 -3.5t-10 -6.5q-13 -10 -45 -42q-65 -67 -170 -182q-16 -60 -16 -92q0 -34 14 -49t54 -15q35 0 87 24t97 58q62 48 136 140q4 6 8 6t4 -4q0 -2 -2 -6q-68 -92 -138 -146zM502 690q27 0 48 -20t40 -39.5
t41 -19.5q38 0 76 55q10 14 18 17q10 3 14 3l2 -1q0 -4 -17.5 -25t-55 -44.5t-77.5 -23.5q-24 0 -44 19t-38.5 38t-40.5 19q-12 0 -23.5 -3.5t-18.5 -6.5t-18 -12.5t-15 -13t-16.5 -17.5t-14.5 -16q-4 -4 -12 -7q-9 -4 -11 -4t-2 2q0 7 42 43q67 57 123 57z" />
    <glyph glyph-name="uni1F87" unicode="&#x1f87;" horiz-adv-x="658" 
d="M182 -100q6 0 6 -6q0 -4 -15.5 -16.5t-31 -35t-15.5 -48.5q0 -24 18.5 -41t45.5 -17q12 0 29 4l17 5q2 0 2 -3q0 -2 -16 -8t-37.5 -11t-34.5 -5q-86 0 -86 58q0 33 29 64t56 45.5t33 14.5zM380 139q10 35 29 86.5t30 86t11 53.5q0 65 -57 65q-63 0 -124 -61t-95 -135.5
t-34 -125.5q0 -36 14.5 -54.5t49.5 -18.5q33 0 73.5 24t102.5 80zM698 98q-144 -113 -254 -113q-77 0 -77 74q0 10 9 52q-118 -115 -226 -115q-43 0 -68 28.5t-25 75.5q0 67 59 150.5t146 142t159 58.5q51 0 77 -20.5t26 -52.5q0 -19 -8.5 -44t-26.5 -62.5t-22 -47.5
q35 42 78.5 91t50.5 58q26 30 50 38q29 10 38 10l2 -2q0 -2 -1 -3t-6 -3.5t-10 -6.5q-13 -10 -45 -42q-65 -67 -170 -182q-16 -60 -16 -92q0 -34 14 -49t54 -15q35 0 87 24t97 58q62 48 136 140q4 6 8 6t4 -4q0 -2 -2 -6q-68 -92 -138 -146zM548 840q27 0 48 -20t40 -39.5
t41 -19.5q38 0 76 55q10 14 18 17q10 3 14 3l2 -1q0 -4 -17.5 -25t-55 -44.5t-77.5 -23.5q-24 0 -44 19t-38.5 38t-40.5 19q-12 0 -23.5 -3.5t-18.5 -6.5t-18 -12.5t-15 -13t-16.5 -17.5t-14.5 -16q-4 -4 -12 -7q-9 -4 -11 -4t-2 2q0 7 42 43q67 57 123 57zM513 576
q2 -3 6.5 -8.5t8 -9.5t3.5 -7q0 -4 -4 -4q-10 0 -26 31q-22 36 -22 74t24 62q20 20 34 20q6 0 14 -10t8 -20q0 -5 -2 -6.5t-9 -3.5t-11 -4q-37 -17 -37 -67q0 -25 13 -47z" />
    <glyph glyph-name="uni1F86" unicode="&#x1f86;" horiz-adv-x="658" 
d="M182 -100q6 0 6 -6q0 -4 -15.5 -16.5t-31 -35t-15.5 -48.5q0 -24 18.5 -41t45.5 -17q12 0 29 4l17 5q2 0 2 -3q0 -2 -16 -8t-37.5 -11t-34.5 -5q-86 0 -86 58q0 33 29 64t56 45.5t33 14.5zM380 139q10 35 29 86.5t30 86t11 53.5q0 65 -57 65q-63 0 -124 -61t-95 -135.5
t-34 -125.5q0 -36 14.5 -54.5t49.5 -18.5q33 0 73.5 24t102.5 80zM698 98q-144 -113 -254 -113q-77 0 -77 74q0 10 9 52q-118 -115 -226 -115q-43 0 -68 28.5t-25 75.5q0 67 59 150.5t146 142t159 58.5q51 0 77 -20.5t26 -52.5q0 -19 -8.5 -44t-26.5 -62.5t-22 -47.5
q35 42 78.5 91t50.5 58q26 30 50 38q29 10 38 10l2 -2q0 -2 -1 -3t-6 -3.5t-10 -6.5q-13 -10 -45 -42q-65 -67 -170 -182q-16 -60 -16 -92q0 -34 14 -49t54 -15q35 0 87 24t97 58q62 48 136 140q4 6 8 6t4 -4q0 -2 -2 -6q-68 -92 -138 -146zM548 840q27 0 48 -20t40 -39.5
t41 -19.5q38 0 76 55q10 14 18 17q10 3 14 3l2 -1q0 -4 -17.5 -25t-55 -44.5t-77.5 -23.5q-24 0 -44 19t-38.5 38t-40.5 19q-12 0 -23.5 -3.5t-18.5 -6.5t-18 -12.5t-15 -13t-16.5 -17.5t-14.5 -16q-4 -4 -12 -7q-9 -4 -11 -4t-2 2q0 7 42 43q67 57 123 57zM503 571
q32 29 32 70q0 32 -20 50q-3 2 -6.5 5t-5.5 4.5t-3.5 3t-1.5 3.5q0 9 11 18t17 9q9 0 20 -15q19 -23 19 -54q0 -52 -50 -96q-24 -22 -32 -22q-6 0 -6 4q0 3 4.5 6t11.5 7t10 7z" />
    <glyph glyph-name="uniE00F" unicode="&#xe00f;" horiz-adv-x="420" 
d="M601 707q7 0 7 -5q0 -8 -72 -51q-113 -65 -212 -65q-60 0 -102 32t-42 69q0 7 21 14q7 2 11.5 4t6 3l3 2t2.5 1t1.5 -2t1.5 -7t2 -9q10 -39 45.5 -61.5t89.5 -22.5q78 0 151 42q30 18 53 38q20 18 33 18z" />
    <glyph glyph-name="uni1F74" unicode="&#x1f74;" horiz-adv-x="630" 
d="M529 551q0 -5 -8 -5q-6 0 -11 14l-50 154q-10 27 -10 42q0 8 8 20t16 12q9 0 12 -15l39 -199q4 -20 4 -23zM305 411q0 -39 -32 -97q52 50 122.5 94t116.5 44q31 0 54 -22t23 -52q0 -43 -74.5 -164t-74.5 -156q0 -16 9 -27t23 -11q40 0 94 27.5t96 60.5q62 48 136 140
q4 6 8 6t4 -4q0 -2 -2 -6q-68 -92 -138 -146q-71 -57 -141.5 -87.5t-111.5 -30.5q-26 0 -43 15.5t-17 41.5q0 41 37 108t74 129.5t37 94.5q0 21 -12.5 33t-27.5 12q-76 0 -209 -144l-148 -262q-3 -5 -9.5 -7t-19.5 -2.5t-22 -2.5q-12 -3 -24 -7t-16 -4t-4 4q0 1 1.5 2.5
l4.5 4.5t6 7q13 18 51 83q63 109 92 162q16 31 38 83t22 69q0 32 -20 32q-23 0 -74 -34q-9 -6 -10 -6q-4 0 -4 4t6 8q75 56 120 56q29 0 44 -13.5t15 -35.5z" />
    <glyph glyph-name="uni1F21" unicode="&#x1f21;" horiz-adv-x="630" 
d="M512 568q10 -15 10 -16q0 -6 -8 -6q-4 0 -12.5 13.5t-16.5 39.5t-8 52q0 51 28.5 88t47.5 37q5 0 13.5 -7t8.5 -15q0 -2 -18.5 -18.5t-37.5 -47t-19 -66.5q0 -33 12 -54zM305 411q0 -39 -32 -97q52 50 122.5 94t116.5 44q31 0 54 -22t23 -52q0 -43 -74.5 -164t-74.5 -156
q0 -16 9 -27t23 -11q40 0 94 27.5t96 60.5q62 48 136 140q4 6 8 6t4 -4q0 -2 -2 -6q-68 -92 -138 -146q-71 -57 -141.5 -87.5t-111.5 -30.5q-26 0 -43 15.5t-17 41.5q0 41 37 108t74 129.5t37 94.5q0 21 -12.5 33t-27.5 12q-76 0 -209 -144l-148 -262q-3 -5 -9.5 -7
t-19.5 -2.5t-22 -2.5q-12 -3 -24 -7t-16 -4t-4 4q0 1 1.5 2.5l4.5 4.5t6 7q13 18 51 83q63 109 92 162q16 31 38 83t22 69q0 32 -20 32q-23 0 -74 -34q-9 -6 -10 -6q-4 0 -4 4t6 8q75 56 120 56q29 0 44 -13.5t15 -35.5z" />
    <glyph glyph-name="uni1F20" unicode="&#x1f20;" horiz-adv-x="630" 
d="M492 568q42 42 42 109q0 23 -7 37.5t-14 22t-7 12.5q0 9 13 18t19 9q14 0 25 -23t11 -46q0 -35 -22 -75t-43.5 -63t-27.5 -23t-6 4q0 3 2.5 5.5t7.5 6.5t7 6zM305 411q0 -39 -32 -97q52 50 122.5 94t116.5 44q31 0 54 -22t23 -52q0 -43 -74.5 -164t-74.5 -156
q0 -16 9 -27t23 -11q40 0 94 27.5t96 60.5q62 48 136 140q4 6 8 6t4 -4q0 -2 -2 -6q-68 -92 -138 -146q-71 -57 -141.5 -87.5t-111.5 -30.5q-26 0 -43 15.5t-17 41.5q0 41 37 108t74 129.5t37 94.5q0 21 -12.5 33t-27.5 12q-76 0 -209 -144l-148 -262q-3 -5 -9.5 -7
t-19.5 -2.5t-22 -2.5q-12 -3 -24 -7t-16 -4t-4 4q0 1 1.5 2.5l4.5 4.5t6 7q13 18 51 83q63 109 92 162q16 31 38 83t22 69q0 32 -20 32q-23 0 -74 -34q-9 -6 -10 -6q-4 0 -4 4t6 8q75 56 120 56q29 0 44 -13.5t15 -35.5z" />
    <glyph glyph-name="uni1FC2" unicode="&#x1fc2;" horiz-adv-x="630" 
d="M213 -100q6 0 6 -6q0 -4 -15.5 -16.5t-31 -35t-15.5 -48.5q0 -24 18.5 -41t45.5 -17q12 0 29 4l17 5q2 0 2 -3q0 -2 -16 -8t-37.5 -11t-34.5 -5q-86 0 -86 58q0 33 29 64t56 45.5t33 14.5zM305 411q0 -39 -32 -97q52 50 122.5 94t116.5 44q31 0 54 -22t23 -52
q0 -43 -74.5 -164t-74.5 -156q0 -16 9 -27t23 -11q40 0 94 27.5t96 60.5q62 48 136 140q4 6 8 6t4 -4q0 -2 -2 -6q-68 -92 -138 -146q-71 -57 -141.5 -87.5t-111.5 -30.5q-26 0 -43 15.5t-17 41.5q0 41 37 108t74 129.5t37 94.5q0 21 -12.5 33t-27.5 12q-76 0 -209 -144
l-148 -262q-3 -5 -9.5 -7t-19.5 -2.5t-22 -2.5q-12 -3 -24 -7t-16 -4t-4 4q0 1 1.5 2.5l4.5 4.5t6 7q13 18 51 83q63 109 92 162q16 31 38 83t22 69q0 32 -20 32q-23 0 -74 -34q-9 -6 -10 -6q-4 0 -4 4t6 8q75 56 120 56q29 0 44 -13.5t15 -35.5zM529 551q0 -5 -8 -5
q-6 0 -11 14l-50 154q-10 27 -10 42q0 8 8 20t16 12q9 0 12 -15l39 -199q4 -20 4 -23z" />
    <glyph glyph-name="uni1F91" unicode="&#x1f91;" horiz-adv-x="630" 
d="M213 -100q6 0 6 -6q0 -4 -15.5 -16.5t-31 -35t-15.5 -48.5q0 -24 18.5 -41t45.5 -17q12 0 29 4l17 5q2 0 2 -3q0 -2 -16 -8t-37.5 -11t-34.5 -5q-86 0 -86 58q0 33 29 64t56 45.5t33 14.5zM305 411q0 -39 -32 -97q52 50 122.5 94t116.5 44q31 0 54 -22t23 -52
q0 -43 -74.5 -164t-74.5 -156q0 -16 9 -27t23 -11q40 0 94 27.5t96 60.5q62 48 136 140q4 6 8 6t4 -4q0 -2 -2 -6q-68 -92 -138 -146q-71 -57 -141.5 -87.5t-111.5 -30.5q-26 0 -43 15.5t-17 41.5q0 41 37 108t74 129.5t37 94.5q0 21 -12.5 33t-27.5 12q-76 0 -209 -144
l-148 -262q-3 -5 -9.5 -7t-19.5 -2.5t-22 -2.5q-12 -3 -24 -7t-16 -4t-4 4q0 1 1.5 2.5l4.5 4.5t6 7q13 18 51 83q63 109 92 162q16 31 38 83t22 69q0 32 -20 32q-23 0 -74 -34q-9 -6 -10 -6q-4 0 -4 4t6 8q75 56 120 56q29 0 44 -13.5t15 -35.5zM512 568q10 -15 10 -16
q0 -6 -8 -6q-4 0 -12.5 13.5t-16.5 39.5t-8 52q0 51 28.5 88t47.5 37q5 0 13.5 -7t8.5 -15q0 -2 -18.5 -18.5t-37.5 -47t-19 -66.5q0 -33 12 -54z" />
    <glyph glyph-name="uni1F90" unicode="&#x1f90;" horiz-adv-x="630" 
d="M213 -100q6 0 6 -6q0 -4 -15.5 -16.5t-31 -35t-15.5 -48.5q0 -24 18.5 -41t45.5 -17q12 0 29 4l17 5q2 0 2 -3q0 -2 -16 -8t-37.5 -11t-34.5 -5q-86 0 -86 58q0 33 29 64t56 45.5t33 14.5zM305 411q0 -39 -32 -97q52 50 122.5 94t116.5 44q31 0 54 -22t23 -52
q0 -43 -74.5 -164t-74.5 -156q0 -16 9 -27t23 -11q40 0 94 27.5t96 60.5q62 48 136 140q4 6 8 6t4 -4q0 -2 -2 -6q-68 -92 -138 -146q-71 -57 -141.5 -87.5t-111.5 -30.5q-26 0 -43 15.5t-17 41.5q0 41 37 108t74 129.5t37 94.5q0 21 -12.5 33t-27.5 12q-76 0 -209 -144
l-148 -262q-3 -5 -9.5 -7t-19.5 -2.5t-22 -2.5q-12 -3 -24 -7t-16 -4t-4 4q0 1 1.5 2.5l4.5 4.5t6 7q13 18 51 83q63 109 92 162q16 31 38 83t22 69q0 32 -20 32q-23 0 -74 -34q-9 -6 -10 -6q-4 0 -4 4t6 8q75 56 120 56q29 0 44 -13.5t15 -35.5zM492 568q42 42 42 109
q0 23 -7 37.5t-14 22t-7 12.5q0 9 13 18t19 9q14 0 25 -23t11 -46q0 -35 -22 -75t-43.5 -63t-27.5 -23t-6 4q0 3 2.5 5.5t7.5 6.5t7 6z" />
    <glyph glyph-name="etatonos" unicode="&#x3ae;" horiz-adv-x="630" 
d="M469 573l186 189q24 24 28 24t9.5 -11t5.5 -16q0 -12 -10 -19l-211 -180q-13 -13 -20 -13q-5 0 -5 5q0 4 17 21zM305 411q0 -39 -32 -97q52 50 122.5 94t116.5 44q31 0 54 -22t23 -52q0 -43 -74.5 -164t-74.5 -156q0 -16 9 -27t23 -11q40 0 94 27.5t96 60.5
q62 48 136 140q4 6 8 6t4 -4q0 -2 -2 -6q-68 -92 -138 -146q-71 -57 -141.5 -87.5t-111.5 -30.5q-26 0 -43 15.5t-17 41.5q0 41 37 108t74 129.5t37 94.5q0 21 -12.5 33t-27.5 12q-76 0 -209 -144l-148 -262q-3 -5 -9.5 -7t-19.5 -2.5t-22 -2.5q-12 -3 -24 -7t-16 -4t-4 4
q0 1 1.5 2.5l4.5 4.5t6 7q13 18 51 83q63 109 92 162q16 31 38 83t22 69q0 32 -20 32q-23 0 -74 -34q-9 -6 -10 -6q-4 0 -4 4t6 8q75 56 120 56q29 0 44 -13.5t15 -35.5z" />
    <glyph glyph-name="uni1F25" unicode="&#x1f25;" horiz-adv-x="630" 
d="M518 573l186 189q24 24 28 24t9.5 -11t5.5 -16q0 -12 -10 -19l-211 -180q-13 -13 -20 -13q-5 0 -5 5q0 4 17 21zM460 568q10 -15 10 -16q0 -6 -8 -6q-4 0 -12.5 13.5t-16.5 39.5t-8 52q0 51 28.5 88t47.5 37q5 0 13.5 -7t8.5 -15q0 -2 -18.5 -18.5t-37.5 -47t-19 -66.5
q0 -33 12 -54zM305 411q0 -39 -32 -97q52 50 122.5 94t116.5 44q31 0 54 -22t23 -52q0 -43 -74.5 -164t-74.5 -156q0 -16 9 -27t23 -11q40 0 94 27.5t96 60.5q62 48 136 140q4 6 8 6t4 -4q0 -2 -2 -6q-68 -92 -138 -146q-71 -57 -141.5 -87.5t-111.5 -30.5q-26 0 -43 15.5
t-17 41.5q0 41 37 108t74 129.5t37 94.5q0 21 -12.5 33t-27.5 12q-76 0 -209 -144l-148 -262q-3 -5 -9.5 -7t-19.5 -2.5t-22 -2.5q-12 -3 -24 -7t-16 -4t-4 4q0 1 1.5 2.5l4.5 4.5t6 7q13 18 51 83q63 109 92 162q16 31 38 83t22 69q0 32 -20 32q-23 0 -74 -34q-9 -6 -10 -6
q-4 0 -4 4t6 8q75 56 120 56q29 0 44 -13.5t15 -35.5z" />
    <glyph glyph-name="uni1F24" unicode="&#x1f24;" horiz-adv-x="630" 
d="M434 568q42 42 42 109q0 23 -7 37.5t-14 22t-7 12.5q0 9 13 18t19 9q14 0 25 -23t11 -46q0 -35 -22 -75t-43.5 -63t-27.5 -23t-6 4q0 3 2.5 5.5t7.5 6.5t7 6zM518 573l186 189q24 24 28 24t9.5 -11t5.5 -16q0 -12 -10 -19l-211 -180q-13 -13 -20 -13q-5 0 -5 5q0 4 17 21
zM305 411q0 -39 -32 -97q52 50 122.5 94t116.5 44q31 0 54 -22t23 -52q0 -43 -74.5 -164t-74.5 -156q0 -16 9 -27t23 -11q40 0 94 27.5t96 60.5q62 48 136 140q4 6 8 6t4 -4q0 -2 -2 -6q-68 -92 -138 -146q-71 -57 -141.5 -87.5t-111.5 -30.5q-26 0 -43 15.5t-17 41.5
q0 41 37 108t74 129.5t37 94.5q0 21 -12.5 33t-27.5 12q-76 0 -209 -144l-148 -262q-3 -5 -9.5 -7t-19.5 -2.5t-22 -2.5q-12 -3 -24 -7t-16 -4t-4 4q0 1 1.5 2.5l4.5 4.5t6 7q13 18 51 83q63 109 92 162q16 31 38 83t22 69q0 32 -20 32q-23 0 -74 -34q-9 -6 -10 -6
q-4 0 -4 4t6 8q75 56 120 56q29 0 44 -13.5t15 -35.5z" />
    <glyph glyph-name="uni1F23" unicode="&#x1f23;" horiz-adv-x="630" 
d="M613 552q0 -5 -8 -5q-6 0 -11 14l-50 154q-10 27 -10 42q0 8 8 20t16 12q9 0 12 -15l39 -199q4 -20 4 -23zM442 568q10 -15 10 -16q0 -6 -8 -6q-4 0 -12.5 13.5t-16.5 39.5t-8 52q0 51 28.5 88t47.5 37q5 0 13.5 -7t8.5 -15q0 -2 -18.5 -18.5t-37.5 -47t-19 -66.5
q0 -33 12 -54zM305 411q0 -39 -32 -97q52 50 122.5 94t116.5 44q31 0 54 -22t23 -52q0 -43 -74.5 -164t-74.5 -156q0 -16 9 -27t23 -11q40 0 94 27.5t96 60.5q62 48 136 140q4 6 8 6t4 -4q0 -2 -2 -6q-68 -92 -138 -146q-71 -57 -141.5 -87.5t-111.5 -30.5q-26 0 -43 15.5
t-17 41.5q0 41 37 108t74 129.5t37 94.5q0 21 -12.5 33t-27.5 12q-76 0 -209 -144l-148 -262q-3 -5 -9.5 -7t-19.5 -2.5t-22 -2.5q-12 -3 -24 -7t-16 -4t-4 4q0 1 1.5 2.5l4.5 4.5t6 7q13 18 51 83q63 109 92 162q16 31 38 83t22 69q0 32 -20 32q-23 0 -74 -34q-9 -6 -10 -6
q-4 0 -4 4t6 8q75 56 120 56q29 0 44 -13.5t15 -35.5z" />
    <glyph glyph-name="uni1FC4" unicode="&#x1fc4;" horiz-adv-x="630" 
d="M213 -100q6 0 6 -6q0 -4 -15.5 -16.5t-31 -35t-15.5 -48.5q0 -24 18.5 -41t45.5 -17q12 0 29 4l17 5q2 0 2 -3q0 -2 -16 -8t-37.5 -11t-34.5 -5q-86 0 -86 58q0 33 29 64t56 45.5t33 14.5zM305 411q0 -39 -32 -97q52 50 122.5 94t116.5 44q31 0 54 -22t23 -52
q0 -43 -74.5 -164t-74.5 -156q0 -16 9 -27t23 -11q40 0 94 27.5t96 60.5q62 48 136 140q4 6 8 6t4 -4q0 -2 -2 -6q-68 -92 -138 -146q-71 -57 -141.5 -87.5t-111.5 -30.5q-26 0 -43 15.5t-17 41.5q0 41 37 108t74 129.5t37 94.5q0 21 -12.5 33t-27.5 12q-76 0 -209 -144
l-148 -262q-3 -5 -9.5 -7t-19.5 -2.5t-22 -2.5q-12 -3 -24 -7t-16 -4t-4 4q0 1 1.5 2.5l4.5 4.5t6 7q13 18 51 83q63 109 92 162q16 31 38 83t22 69q0 32 -20 32q-23 0 -74 -34q-9 -6 -10 -6q-4 0 -4 4t6 8q75 56 120 56q29 0 44 -13.5t15 -35.5zM453 573l186 189
q24 24 28 24t9.5 -11t5.5 -16q0 -12 -10 -19l-211 -180q-13 -13 -20 -13q-5 0 -5 5q0 4 17 21z" />
    <glyph glyph-name="uni1F95" unicode="&#x1f95;" horiz-adv-x="630" 
d="M213 -100q6 0 6 -6q0 -4 -15.5 -16.5t-31 -35t-15.5 -48.5q0 -24 18.5 -41t45.5 -17q12 0 29 4l17 5q2 0 2 -3q0 -2 -16 -8t-37.5 -11t-34.5 -5q-86 0 -86 58q0 33 29 64t56 45.5t33 14.5zM305 411q0 -39 -32 -97q52 50 122.5 94t116.5 44q31 0 54 -22t23 -52
q0 -43 -74.5 -164t-74.5 -156q0 -16 9 -27t23 -11q40 0 94 27.5t96 60.5q62 48 136 140q4 6 8 6t4 -4q0 -2 -2 -6q-68 -92 -138 -146q-71 -57 -141.5 -87.5t-111.5 -30.5q-26 0 -43 15.5t-17 41.5q0 41 37 108t74 129.5t37 94.5q0 21 -12.5 33t-27.5 12q-76 0 -209 -144
l-148 -262q-3 -5 -9.5 -7t-19.5 -2.5t-22 -2.5q-12 -3 -24 -7t-16 -4t-4 4q0 1 1.5 2.5l4.5 4.5t6 7q13 18 51 83q63 109 92 162q16 31 38 83t22 69q0 32 -20 32q-23 0 -74 -34q-9 -6 -10 -6q-4 0 -4 4t6 8q75 56 120 56q29 0 44 -13.5t15 -35.5zM518 573l186 189
q24 24 28 24t9.5 -11t5.5 -16q0 -12 -10 -19l-211 -180q-13 -13 -20 -13q-5 0 -5 5q0 4 17 21zM460 568q10 -15 10 -16q0 -6 -8 -6q-4 0 -12.5 13.5t-16.5 39.5t-8 52q0 51 28.5 88t47.5 37q5 0 13.5 -7t8.5 -15q0 -2 -18.5 -18.5t-37.5 -47t-19 -66.5q0 -33 12 -54z" />
    <glyph glyph-name="uni1F94" unicode="&#x1f94;" horiz-adv-x="630" 
d="M213 -100q6 0 6 -6q0 -4 -15.5 -16.5t-31 -35t-15.5 -48.5q0 -24 18.5 -41t45.5 -17q12 0 29 4l17 5q2 0 2 -3q0 -2 -16 -8t-37.5 -11t-34.5 -5q-86 0 -86 58q0 33 29 64t56 45.5t33 14.5zM305 411q0 -39 -32 -97q52 50 122.5 94t116.5 44q31 0 54 -22t23 -52
q0 -43 -74.5 -164t-74.5 -156q0 -16 9 -27t23 -11q40 0 94 27.5t96 60.5q62 48 136 140q4 6 8 6t4 -4q0 -2 -2 -6q-68 -92 -138 -146q-71 -57 -141.5 -87.5t-111.5 -30.5q-26 0 -43 15.5t-17 41.5q0 41 37 108t74 129.5t37 94.5q0 21 -12.5 33t-27.5 12q-76 0 -209 -144
l-148 -262q-3 -5 -9.5 -7t-19.5 -2.5t-22 -2.5q-12 -3 -24 -7t-16 -4t-4 4q0 1 1.5 2.5l4.5 4.5t6 7q13 18 51 83q63 109 92 162q16 31 38 83t22 69q0 32 -20 32q-23 0 -74 -34q-9 -6 -10 -6q-4 0 -4 4t6 8q75 56 120 56q29 0 44 -13.5t15 -35.5zM434 568q42 42 42 109
q0 23 -7 37.5t-14 22t-7 12.5q0 9 13 18t19 9q14 0 25 -23t11 -46q0 -35 -22 -75t-43.5 -63t-27.5 -23t-6 4q0 3 2.5 5.5t7.5 6.5t7 6zM518 573l186 189q24 24 28 24t9.5 -11t5.5 -16q0 -12 -10 -19l-211 -180q-13 -13 -20 -13q-5 0 -5 5q0 4 17 21z" />
    <glyph glyph-name="uni1F93" unicode="&#x1f93;" horiz-adv-x="630" 
d="M213 -100q6 0 6 -6q0 -4 -15.5 -16.5t-31 -35t-15.5 -48.5q0 -24 18.5 -41t45.5 -17q12 0 29 4l17 5q2 0 2 -3q0 -2 -16 -8t-37.5 -11t-34.5 -5q-86 0 -86 58q0 33 29 64t56 45.5t33 14.5zM305 411q0 -39 -32 -97q52 50 122.5 94t116.5 44q31 0 54 -22t23 -52
q0 -43 -74.5 -164t-74.5 -156q0 -16 9 -27t23 -11q40 0 94 27.5t96 60.5q62 48 136 140q4 6 8 6t4 -4q0 -2 -2 -6q-68 -92 -138 -146q-71 -57 -141.5 -87.5t-111.5 -30.5q-26 0 -43 15.5t-17 41.5q0 41 37 108t74 129.5t37 94.5q0 21 -12.5 33t-27.5 12q-76 0 -209 -144
l-148 -262q-3 -5 -9.5 -7t-19.5 -2.5t-22 -2.5q-12 -3 -24 -7t-16 -4t-4 4q0 1 1.5 2.5l4.5 4.5t6 7q13 18 51 83q63 109 92 162q16 31 38 83t22 69q0 32 -20 32q-23 0 -74 -34q-9 -6 -10 -6q-4 0 -4 4t6 8q75 56 120 56q29 0 44 -13.5t15 -35.5zM613 552q0 -5 -8 -5
q-6 0 -11 14l-50 154q-10 27 -10 42q0 8 8 20t16 12q9 0 12 -15l39 -199q4 -20 4 -23zM442 568q10 -15 10 -16q0 -6 -8 -6q-4 0 -12.5 13.5t-16.5 39.5t-8 52q0 51 28.5 88t47.5 37q5 0 13.5 -7t8.5 -15q0 -2 -18.5 -18.5t-37.5 -47t-19 -66.5q0 -33 12 -54z" />
    <glyph glyph-name="uni1FC6" unicode="&#x1fc6;" horiz-adv-x="630" 
d="M500 690q27 0 48 -20t40 -39.5t41 -19.5q38 0 76 55q10 14 18 17q10 3 14 3l2 -1q0 -4 -17.5 -25t-55 -44.5t-77.5 -23.5q-24 0 -44 19t-38.5 38t-40.5 19q-12 0 -23.5 -3.5t-18.5 -6.5t-18 -12.5t-15 -13t-16.5 -17.5t-14.5 -16q-4 -4 -12 -7q-9 -4 -11 -4t-2 2
q0 7 42 43q67 57 123 57zM305 411q0 -39 -32 -97q52 50 122.5 94t116.5 44q31 0 54 -22t23 -52q0 -43 -74.5 -164t-74.5 -156q0 -16 9 -27t23 -11q40 0 94 27.5t96 60.5q62 48 136 140q4 6 8 6t4 -4q0 -2 -2 -6q-68 -92 -138 -146q-71 -57 -141.5 -87.5t-111.5 -30.5
q-26 0 -43 15.5t-17 41.5q0 41 37 108t74 129.5t37 94.5q0 21 -12.5 33t-27.5 12q-76 0 -209 -144l-148 -262q-3 -5 -9.5 -7t-19.5 -2.5t-22 -2.5q-12 -3 -24 -7t-16 -4t-4 4q0 1 1.5 2.5l4.5 4.5t6 7q13 18 51 83q63 109 92 162q16 31 38 83t22 69q0 32 -20 32
q-23 0 -74 -34q-9 -6 -10 -6q-4 0 -4 4t6 8q75 56 120 56q29 0 44 -13.5t15 -35.5z" />
    <glyph glyph-name="uni1F27" unicode="&#x1f27;" horiz-adv-x="630" 
d="M546 840q27 0 48 -20t40 -39.5t41 -19.5q38 0 76 55q10 14 18 17q10 3 14 3l2 -1q0 -4 -17.5 -25t-55 -44.5t-77.5 -23.5q-24 0 -44 19t-38.5 38t-40.5 19q-12 0 -23.5 -3.5t-18.5 -6.5t-18 -12.5t-15 -13t-16.5 -17.5t-14.5 -16q-4 -4 -12 -7q-9 -4 -11 -4t-2 2
q0 7 42 43q67 57 123 57zM511 576q2 -3 6.5 -8.5t8 -9.5t3.5 -7q0 -4 -4 -4q-10 0 -26 31q-22 36 -22 74t24 62q20 20 34 20q6 0 14 -10t8 -20q0 -5 -2 -6.5t-9 -3.5t-11 -4q-37 -17 -37 -67q0 -25 13 -47zM305 411q0 -39 -32 -97q52 50 122.5 94t116.5 44q31 0 54 -22
t23 -52q0 -43 -74.5 -164t-74.5 -156q0 -16 9 -27t23 -11q40 0 94 27.5t96 60.5q62 48 136 140q4 6 8 6t4 -4q0 -2 -2 -6q-68 -92 -138 -146q-71 -57 -141.5 -87.5t-111.5 -30.5q-26 0 -43 15.5t-17 41.5q0 41 37 108t74 129.5t37 94.5q0 21 -12.5 33t-27.5 12
q-76 0 -209 -144l-148 -262q-3 -5 -9.5 -7t-19.5 -2.5t-22 -2.5q-12 -3 -24 -7t-16 -4t-4 4q0 1 1.5 2.5l4.5 4.5t6 7q13 18 51 83q63 109 92 162q16 31 38 83t22 69q0 32 -20 32q-23 0 -74 -34q-9 -6 -10 -6q-4 0 -4 4t6 8q75 56 120 56q29 0 44 -13.5t15 -35.5z" />
    <glyph glyph-name="uni1F26" unicode="&#x1f26;" horiz-adv-x="630" 
d="M546 840q27 0 48 -20t40 -39.5t41 -19.5q38 0 76 55q10 14 18 17q10 3 14 3l2 -1q0 -4 -17.5 -25t-55 -44.5t-77.5 -23.5q-24 0 -44 19t-38.5 38t-40.5 19q-12 0 -23.5 -3.5t-18.5 -6.5t-18 -12.5t-15 -13t-16.5 -17.5t-14.5 -16q-4 -4 -12 -7q-9 -4 -11 -4t-2 2
q0 7 42 43q67 57 123 57zM501 571q32 29 32 70q0 32 -20 50q-3 2 -6.5 5t-5.5 4.5t-3.5 3t-1.5 3.5q0 9 11 18t17 9q9 0 20 -15q19 -23 19 -54q0 -52 -50 -96q-24 -22 -32 -22q-6 0 -6 4q0 3 4.5 6t11.5 7t10 7zM305 411q0 -39 -32 -97q52 50 122.5 94t116.5 44q31 0 54 -22
t23 -52q0 -43 -74.5 -164t-74.5 -156q0 -16 9 -27t23 -11q40 0 94 27.5t96 60.5q62 48 136 140q4 6 8 6t4 -4q0 -2 -2 -6q-68 -92 -138 -146q-71 -57 -141.5 -87.5t-111.5 -30.5q-26 0 -43 15.5t-17 41.5q0 41 37 108t74 129.5t37 94.5q0 21 -12.5 33t-27.5 12
q-76 0 -209 -144l-148 -262q-3 -5 -9.5 -7t-19.5 -2.5t-22 -2.5q-12 -3 -24 -7t-16 -4t-4 4q0 1 1.5 2.5l4.5 4.5t6 7q13 18 51 83q63 109 92 162q16 31 38 83t22 69q0 32 -20 32q-23 0 -74 -34q-9 -6 -10 -6q-4 0 -4 4t6 8q75 56 120 56q29 0 44 -13.5t15 -35.5z" />
    <glyph glyph-name="uni1F22" unicode="&#x1f22;" horiz-adv-x="630" 
d="M603 552q0 -5 -8 -5q-6 0 -11 14l-50 154q-10 27 -10 42q0 8 8 20t16 12q9 0 12 -15l39 -199q4 -20 4 -23zM428 568q42 42 42 109q0 23 -7 37.5t-14 22t-7 12.5q0 9 13 18t19 9q14 0 25 -23t11 -46q0 -35 -22 -75t-43.5 -63t-27.5 -23t-6 4q0 3 2.5 5.5t7.5 6.5t7 6z
M305 411q0 -39 -32 -97q52 50 122.5 94t116.5 44q31 0 54 -22t23 -52q0 -43 -74.5 -164t-74.5 -156q0 -16 9 -27t23 -11q40 0 94 27.5t96 60.5q62 48 136 140q4 6 8 6t4 -4q0 -2 -2 -6q-68 -92 -138 -146q-71 -57 -141.5 -87.5t-111.5 -30.5q-26 0 -43 15.5t-17 41.5
q0 41 37 108t74 129.5t37 94.5q0 21 -12.5 33t-27.5 12q-76 0 -209 -144l-148 -262q-3 -5 -9.5 -7t-19.5 -2.5t-22 -2.5q-12 -3 -24 -7t-16 -4t-4 4q0 1 1.5 2.5l4.5 4.5t6 7q13 18 51 83q63 109 92 162q16 31 38 83t22 69q0 32 -20 32q-23 0 -74 -34q-9 -6 -10 -6
q-4 0 -4 4t6 8q75 56 120 56q29 0 44 -13.5t15 -35.5z" />
    <glyph glyph-name="uni1FC7" unicode="&#x1fc7;" horiz-adv-x="630" 
d="M213 -100q6 0 6 -6q0 -4 -15.5 -16.5t-31 -35t-15.5 -48.5q0 -24 18.5 -41t45.5 -17q12 0 29 4l17 5q2 0 2 -3q0 -2 -16 -8t-37.5 -11t-34.5 -5q-86 0 -86 58q0 33 29 64t56 45.5t33 14.5zM305 411q0 -39 -32 -97q52 50 122.5 94t116.5 44q31 0 54 -22t23 -52
q0 -43 -74.5 -164t-74.5 -156q0 -16 9 -27t23 -11q40 0 94 27.5t96 60.5q62 48 136 140q4 6 8 6t4 -4q0 -2 -2 -6q-68 -92 -138 -146q-71 -57 -141.5 -87.5t-111.5 -30.5q-26 0 -43 15.5t-17 41.5q0 41 37 108t74 129.5t37 94.5q0 21 -12.5 33t-27.5 12q-76 0 -209 -144
l-148 -262q-3 -5 -9.5 -7t-19.5 -2.5t-22 -2.5q-12 -3 -24 -7t-16 -4t-4 4q0 1 1.5 2.5l4.5 4.5t6 7q13 18 51 83q63 109 92 162q16 31 38 83t22 69q0 32 -20 32q-23 0 -74 -34q-9 -6 -10 -6q-4 0 -4 4t6 8q75 56 120 56q29 0 44 -13.5t15 -35.5zM500 690q27 0 48 -20
t40 -39.5t41 -19.5q38 0 76 55q10 14 18 17q10 3 14 3l2 -1q0 -4 -17.5 -25t-55 -44.5t-77.5 -23.5q-24 0 -44 19t-38.5 38t-40.5 19q-12 0 -23.5 -3.5t-18.5 -6.5t-18 -12.5t-15 -13t-16.5 -17.5t-14.5 -16q-4 -4 -12 -7q-9 -4 -11 -4t-2 2q0 7 42 43q67 57 123 57z" />
    <glyph glyph-name="uni1F97" unicode="&#x1f97;" horiz-adv-x="630" 
d="M213 -100q6 0 6 -6q0 -4 -15.5 -16.5t-31 -35t-15.5 -48.5q0 -24 18.5 -41t45.5 -17q12 0 29 4l17 5q2 0 2 -3q0 -2 -16 -8t-37.5 -11t-34.5 -5q-86 0 -86 58q0 33 29 64t56 45.5t33 14.5zM305 411q0 -39 -32 -97q52 50 122.5 94t116.5 44q31 0 54 -22t23 -52
q0 -43 -74.5 -164t-74.5 -156q0 -16 9 -27t23 -11q40 0 94 27.5t96 60.5q62 48 136 140q4 6 8 6t4 -4q0 -2 -2 -6q-68 -92 -138 -146q-71 -57 -141.5 -87.5t-111.5 -30.5q-26 0 -43 15.5t-17 41.5q0 41 37 108t74 129.5t37 94.5q0 21 -12.5 33t-27.5 12q-76 0 -209 -144
l-148 -262q-3 -5 -9.5 -7t-19.5 -2.5t-22 -2.5q-12 -3 -24 -7t-16 -4t-4 4q0 1 1.5 2.5l4.5 4.5t6 7q13 18 51 83q63 109 92 162q16 31 38 83t22 69q0 32 -20 32q-23 0 -74 -34q-9 -6 -10 -6q-4 0 -4 4t6 8q75 56 120 56q29 0 44 -13.5t15 -35.5zM546 840q27 0 48 -20
t40 -39.5t41 -19.5q38 0 76 55q10 14 18 17q10 3 14 3l2 -1q0 -4 -17.5 -25t-55 -44.5t-77.5 -23.5q-24 0 -44 19t-38.5 38t-40.5 19q-12 0 -23.5 -3.5t-18.5 -6.5t-18 -12.5t-15 -13t-16.5 -17.5t-14.5 -16q-4 -4 -12 -7q-9 -4 -11 -4t-2 2q0 7 42 43q67 57 123 57z
M511 576q2 -3 6.5 -8.5t8 -9.5t3.5 -7q0 -4 -4 -4q-10 0 -26 31q-22 36 -22 74t24 62q20 20 34 20q6 0 14 -10t8 -20q0 -5 -2 -6.5t-9 -3.5t-11 -4q-37 -17 -37 -67q0 -25 13 -47z" />
    <glyph glyph-name="uni1F96" unicode="&#x1f96;" horiz-adv-x="630" 
d="M213 -100q6 0 6 -6q0 -4 -15.5 -16.5t-31 -35t-15.5 -48.5q0 -24 18.5 -41t45.5 -17q12 0 29 4l17 5q2 0 2 -3q0 -2 -16 -8t-37.5 -11t-34.5 -5q-86 0 -86 58q0 33 29 64t56 45.5t33 14.5zM305 411q0 -39 -32 -97q52 50 122.5 94t116.5 44q31 0 54 -22t23 -52
q0 -43 -74.5 -164t-74.5 -156q0 -16 9 -27t23 -11q40 0 94 27.5t96 60.5q62 48 136 140q4 6 8 6t4 -4q0 -2 -2 -6q-68 -92 -138 -146q-71 -57 -141.5 -87.5t-111.5 -30.5q-26 0 -43 15.5t-17 41.5q0 41 37 108t74 129.5t37 94.5q0 21 -12.5 33t-27.5 12q-76 0 -209 -144
l-148 -262q-3 -5 -9.5 -7t-19.5 -2.5t-22 -2.5q-12 -3 -24 -7t-16 -4t-4 4q0 1 1.5 2.5l4.5 4.5t6 7q13 18 51 83q63 109 92 162q16 31 38 83t22 69q0 32 -20 32q-23 0 -74 -34q-9 -6 -10 -6q-4 0 -4 4t6 8q75 56 120 56q29 0 44 -13.5t15 -35.5zM546 840q27 0 48 -20
t40 -39.5t41 -19.5q38 0 76 55q10 14 18 17q10 3 14 3l2 -1q0 -4 -17.5 -25t-55 -44.5t-77.5 -23.5q-24 0 -44 19t-38.5 38t-40.5 19q-12 0 -23.5 -3.5t-18.5 -6.5t-18 -12.5t-15 -13t-16.5 -17.5t-14.5 -16q-4 -4 -12 -7q-9 -4 -11 -4t-2 2q0 7 42 43q67 57 123 57z
M501 571q32 29 32 70q0 32 -20 50q-3 2 -6.5 5t-5.5 4.5t-3.5 3t-1.5 3.5q0 9 11 18t17 9q9 0 20 -15q19 -23 19 -54q0 -52 -50 -96q-24 -22 -32 -22q-6 0 -6 4q0 3 4.5 6t11.5 7t10 7z" />
    <glyph glyph-name="uni1F92" unicode="&#x1f92;" horiz-adv-x="630" 
d="M213 -100q6 0 6 -6q0 -4 -15.5 -16.5t-31 -35t-15.5 -48.5q0 -24 18.5 -41t45.5 -17q12 0 29 4l17 5q2 0 2 -3q0 -2 -16 -8t-37.5 -11t-34.5 -5q-86 0 -86 58q0 33 29 64t56 45.5t33 14.5zM305 411q0 -39 -32 -97q52 50 122.5 94t116.5 44q31 0 54 -22t23 -52
q0 -43 -74.5 -164t-74.5 -156q0 -16 9 -27t23 -11q40 0 94 27.5t96 60.5q62 48 136 140q4 6 8 6t4 -4q0 -2 -2 -6q-68 -92 -138 -146q-71 -57 -141.5 -87.5t-111.5 -30.5q-26 0 -43 15.5t-17 41.5q0 41 37 108t74 129.5t37 94.5q0 21 -12.5 33t-27.5 12q-76 0 -209 -144
l-148 -262q-3 -5 -9.5 -7t-19.5 -2.5t-22 -2.5q-12 -3 -24 -7t-16 -4t-4 4q0 1 1.5 2.5l4.5 4.5t6 7q13 18 51 83q63 109 92 162q16 31 38 83t22 69q0 32 -20 32q-23 0 -74 -34q-9 -6 -10 -6q-4 0 -4 4t6 8q75 56 120 56q29 0 44 -13.5t15 -35.5zM603 552q0 -5 -8 -5
q-6 0 -11 14l-50 154q-10 27 -10 42q0 8 8 20t16 12q9 0 12 -15l39 -199q4 -20 4 -23zM428 568q42 42 42 109q0 23 -7 37.5t-14 22t-7 12.5q0 9 13 18t19 9q14 0 25 -23t11 -46q0 -35 -22 -75t-43.5 -63t-27.5 -23t-6 4q0 3 2.5 5.5t7.5 6.5t7 6z" />
    <glyph glyph-name="uni1F7C" unicode="&#x1f7c;" horiz-adv-x="730" 
d="M545 551q0 -5 -8 -5q-6 0 -11 14l-50 154q-10 27 -10 42q0 8 8 20t16 12q9 0 12 -15l39 -199q4 -20 4 -23zM595 415q0 13 30 29q5 3 10.5 6.5t9 6t7 4t5.5 1.5q6 0 6 -8q0 -7 -1 -13.5t-1 -19.5q0 -21 23.5 -41t65.5 -20q33 0 106 44q9 6 10 6q4 0 4 -4t-6 -8
q-106 -74 -174 -74q4 -32 4 -54q0 -65 -20.5 -118.5t-50.5 -85.5t-66.5 -53.5t-66.5 -30t-52 -8.5q-65 0 -94 52q-4 8 -12 30q-32 -27 -76.5 -47.5t-83.5 -20.5q-37 0 -69 24.5t-32 80.5q0 103 99 222q4 4 11.5 13t11.5 14l10 12.5t9.5 13t7.5 11.5t5.5 11t1.5 9
q0 27 -26 27q-25 0 -67 -28q-9 -6 -10 -6q-4 0 -4 4t6 8q9 7 26 18t45.5 24.5t45.5 13.5q58 0 58 -39q0 -14 -11.5 -31t-36 -43t-31.5 -35q-80 -101 -80 -191q0 -105 72 -105q60 0 112 74q0 38 6 68t15 46.5t18 27.5t15 14l6 4q4 3 18.5 8.5t17.5 5.5q14 0 14 -18
q0 -51 -44 -118q2 -44 28.5 -82t65.5 -38q50 0 86 43t50 92t14 91q0 69 -23 121q-18 39 -18 60z" />
    <glyph glyph-name="uni1F61" unicode="&#x1f61;" horiz-adv-x="730" 
d="M528 568q10 -15 10 -16q0 -6 -8 -6q-4 0 -12.5 13.5t-16.5 39.5t-8 52q0 51 28.5 88t47.5 37q5 0 13.5 -7t8.5 -15q0 -2 -18.5 -18.5t-37.5 -47t-19 -66.5q0 -33 12 -54zM595 415q0 13 30 29q5 3 10.5 6.5t9 6t7 4t5.5 1.5q6 0 6 -8q0 -7 -1 -13.5t-1 -19.5
q0 -21 23.5 -41t65.5 -20q33 0 106 44q9 6 10 6q4 0 4 -4t-6 -8q-106 -74 -174 -74q4 -32 4 -54q0 -65 -20.5 -118.5t-50.5 -85.5t-66.5 -53.5t-66.5 -30t-52 -8.5q-65 0 -94 52q-4 8 -12 30q-32 -27 -76.5 -47.5t-83.5 -20.5q-37 0 -69 24.5t-32 80.5q0 103 99 222
q4 4 11.5 13t11.5 14l10 12.5t9.5 13t7.5 11.5t5.5 11t1.5 9q0 27 -26 27q-25 0 -67 -28q-9 -6 -10 -6q-4 0 -4 4t6 8q9 7 26 18t45.5 24.5t45.5 13.5q58 0 58 -39q0 -14 -11.5 -31t-36 -43t-31.5 -35q-80 -101 -80 -191q0 -105 72 -105q60 0 112 74q0 38 6 68t15 46.5
t18 27.5t15 14l6 4q4 3 18.5 8.5t17.5 5.5q14 0 14 -18q0 -51 -44 -118q2 -44 28.5 -82t65.5 -38q50 0 86 43t50 92t14 91q0 69 -23 121q-18 39 -18 60z" />
    <glyph glyph-name="uni1F60" unicode="&#x1f60;" horiz-adv-x="730" 
d="M508 568q42 42 42 109q0 23 -7 37.5t-14 22t-7 12.5q0 9 13 18t19 9q14 0 25 -23t11 -46q0 -35 -22 -75t-43.5 -63t-27.5 -23t-6 4q0 3 2.5 5.5t7.5 6.5t7 6zM595 415q0 13 30 29q5 3 10.5 6.5t9 6t7 4t5.5 1.5q6 0 6 -8q0 -7 -1 -13.5t-1 -19.5q0 -21 23.5 -41t65.5 -20
q33 0 106 44q9 6 10 6q4 0 4 -4t-6 -8q-106 -74 -174 -74q4 -32 4 -54q0 -65 -20.5 -118.5t-50.5 -85.5t-66.5 -53.5t-66.5 -30t-52 -8.5q-65 0 -94 52q-4 8 -12 30q-32 -27 -76.5 -47.5t-83.5 -20.5q-37 0 -69 24.5t-32 80.5q0 103 99 222q4 4 11.5 13t11.5 14l10 12.5
t9.5 13t7.5 11.5t5.5 11t1.5 9q0 27 -26 27q-25 0 -67 -28q-9 -6 -10 -6q-4 0 -4 4t6 8q9 7 26 18t45.5 24.5t45.5 13.5q58 0 58 -39q0 -14 -11.5 -31t-36 -43t-31.5 -35q-80 -101 -80 -191q0 -105 72 -105q60 0 112 74q0 38 6 68t15 46.5t18 27.5t15 14l6 4q4 3 18.5 8.5
t17.5 5.5q14 0 14 -18q0 -51 -44 -118q2 -44 28.5 -82t65.5 -38q50 0 86 43t50 92t14 91q0 69 -23 121q-18 39 -18 60z" />
    <glyph glyph-name="uni1F63" unicode="&#x1f63;" horiz-adv-x="730" 
d="M629 552q0 -5 -8 -5q-6 0 -11 14l-50 154q-10 27 -10 42q0 8 8 20t16 12q9 0 12 -15l39 -199q4 -20 4 -23zM458 568q10 -15 10 -16q0 -6 -8 -6q-4 0 -12.5 13.5t-16.5 39.5t-8 52q0 51 28.5 88t47.5 37q5 0 13.5 -7t8.5 -15q0 -2 -18.5 -18.5t-37.5 -47t-19 -66.5
q0 -33 12 -54zM595 415q0 13 30 29q5 3 10.5 6.5t9 6t7 4t5.5 1.5q6 0 6 -8q0 -7 -1 -13.5t-1 -19.5q0 -21 23.5 -41t65.5 -20q33 0 106 44q9 6 10 6q4 0 4 -4t-6 -8q-106 -74 -174 -74q4 -32 4 -54q0 -65 -20.5 -118.5t-50.5 -85.5t-66.5 -53.5t-66.5 -30t-52 -8.5
q-65 0 -94 52q-4 8 -12 30q-32 -27 -76.5 -47.5t-83.5 -20.5q-37 0 -69 24.5t-32 80.5q0 103 99 222q4 4 11.5 13t11.5 14l10 12.5t9.5 13t7.5 11.5t5.5 11t1.5 9q0 27 -26 27q-25 0 -67 -28q-9 -6 -10 -6q-4 0 -4 4t6 8q9 7 26 18t45.5 24.5t45.5 13.5q58 0 58 -39
q0 -14 -11.5 -31t-36 -43t-31.5 -35q-80 -101 -80 -191q0 -105 72 -105q60 0 112 74q0 38 6 68t15 46.5t18 27.5t15 14l6 4q4 3 18.5 8.5t17.5 5.5q14 0 14 -18q0 -51 -44 -118q2 -44 28.5 -82t65.5 -38q50 0 86 43t50 92t14 91q0 69 -23 121q-18 39 -18 60z" />
    <glyph glyph-name="uni1FF2" unicode="&#x1ff2;" horiz-adv-x="730" 
d="M309 -86q6 0 6 -6q0 -4 -15.5 -16.5t-31 -35t-15.5 -48.5q0 -24 18.5 -41t45.5 -17q12 0 29 4l17 5q2 0 2 -3q0 -2 -16 -8t-37.5 -11t-34.5 -5q-86 0 -86 58q0 33 29 64t56 45.5t33 14.5zM595 415q0 13 30 29q5 3 10.5 6.5t9 6t7 4t5.5 1.5q6 0 6 -8q0 -7 -1 -13.5
t-1 -19.5q0 -21 23.5 -41t65.5 -20q33 0 106 44q9 6 10 6q4 0 4 -4t-6 -8q-106 -74 -174 -74q4 -32 4 -54q0 -65 -20.5 -118.5t-50.5 -85.5t-66.5 -53.5t-66.5 -30t-52 -8.5q-65 0 -94 52q-4 8 -12 30q-32 -27 -76.5 -47.5t-83.5 -20.5q-37 0 -69 24.5t-32 80.5
q0 103 99 222q4 4 11.5 13t11.5 14l10 12.5t9.5 13t7.5 11.5t5.5 11t1.5 9q0 27 -26 27q-25 0 -67 -28q-9 -6 -10 -6q-4 0 -4 4t6 8q9 7 26 18t45.5 24.5t45.5 13.5q58 0 58 -39q0 -14 -11.5 -31t-36 -43t-31.5 -35q-80 -101 -80 -191q0 -105 72 -105q60 0 112 74q0 38 6 68
t15 46.5t18 27.5t15 14l6 4q4 3 18.5 8.5t17.5 5.5q14 0 14 -18q0 -51 -44 -118q2 -44 28.5 -82t65.5 -38q50 0 86 43t50 92t14 91q0 69 -23 121q-18 39 -18 60zM545 551q0 -5 -8 -5q-6 0 -11 14l-50 154q-10 27 -10 42q0 8 8 20t16 12q9 0 12 -15l39 -199q4 -20 4 -23z" />
    <glyph glyph-name="uni1FA1" unicode="&#x1fa1;" horiz-adv-x="730" 
d="M307 -100q6 0 6 -6q0 -4 -15.5 -16.5t-31 -35t-15.5 -48.5q0 -24 18.5 -41t45.5 -17q12 0 29 4l17 5q2 0 2 -3q0 -2 -16 -8t-37.5 -11t-34.5 -5q-86 0 -86 58q0 33 29 64t56 45.5t33 14.5zM595 415q0 13 30 29q5 3 10.5 6.5t9 6t7 4t5.5 1.5q6 0 6 -8q0 -7 -1 -13.5
t-1 -19.5q0 -21 23.5 -41t65.5 -20q33 0 106 44q9 6 10 6q4 0 4 -4t-6 -8q-106 -74 -174 -74q4 -32 4 -54q0 -65 -20.5 -118.5t-50.5 -85.5t-66.5 -53.5t-66.5 -30t-52 -8.5q-65 0 -94 52q-4 8 -12 30q-32 -27 -76.5 -47.5t-83.5 -20.5q-37 0 -69 24.5t-32 80.5
q0 103 99 222q4 4 11.5 13t11.5 14l10 12.5t9.5 13t7.5 11.5t5.5 11t1.5 9q0 27 -26 27q-25 0 -67 -28q-9 -6 -10 -6q-4 0 -4 4t6 8q9 7 26 18t45.5 24.5t45.5 13.5q58 0 58 -39q0 -14 -11.5 -31t-36 -43t-31.5 -35q-80 -101 -80 -191q0 -105 72 -105q60 0 112 74q0 38 6 68
t15 46.5t18 27.5t15 14l6 4q4 3 18.5 8.5t17.5 5.5q14 0 14 -18q0 -51 -44 -118q2 -44 28.5 -82t65.5 -38q50 0 86 43t50 92t14 91q0 69 -23 121q-18 39 -18 60zM528 568q10 -15 10 -16q0 -6 -8 -6q-4 0 -12.5 13.5t-16.5 39.5t-8 52q0 51 28.5 88t47.5 37q5 0 13.5 -7
t8.5 -15q0 -2 -18.5 -18.5t-37.5 -47t-19 -66.5q0 -33 12 -54z" />
    <glyph glyph-name="uni1FA0" unicode="&#x1fa0;" horiz-adv-x="730" 
d="M307 -100q6 0 6 -6q0 -4 -15.5 -16.5t-31 -35t-15.5 -48.5q0 -24 18.5 -41t45.5 -17q12 0 29 4l17 5q2 0 2 -3q0 -2 -16 -8t-37.5 -11t-34.5 -5q-86 0 -86 58q0 33 29 64t56 45.5t33 14.5zM595 415q0 13 30 29q5 3 10.5 6.5t9 6t7 4t5.5 1.5q6 0 6 -8q0 -7 -1 -13.5
t-1 -19.5q0 -21 23.5 -41t65.5 -20q33 0 106 44q9 6 10 6q4 0 4 -4t-6 -8q-106 -74 -174 -74q4 -32 4 -54q0 -65 -20.5 -118.5t-50.5 -85.5t-66.5 -53.5t-66.5 -30t-52 -8.5q-65 0 -94 52q-4 8 -12 30q-32 -27 -76.5 -47.5t-83.5 -20.5q-37 0 -69 24.5t-32 80.5
q0 103 99 222q4 4 11.5 13t11.5 14l10 12.5t9.5 13t7.5 11.5t5.5 11t1.5 9q0 27 -26 27q-25 0 -67 -28q-9 -6 -10 -6q-4 0 -4 4t6 8q9 7 26 18t45.5 24.5t45.5 13.5q58 0 58 -39q0 -14 -11.5 -31t-36 -43t-31.5 -35q-80 -101 -80 -191q0 -105 72 -105q60 0 112 74q0 38 6 68
t15 46.5t18 27.5t15 14l6 4q4 3 18.5 8.5t17.5 5.5q14 0 14 -18q0 -51 -44 -118q2 -44 28.5 -82t65.5 -38q50 0 86 43t50 92t14 91q0 69 -23 121q-18 39 -18 60zM508 568q42 42 42 109q0 23 -7 37.5t-14 22t-7 12.5q0 9 13 18t19 9q14 0 25 -23t11 -46q0 -35 -22 -75
t-43.5 -63t-27.5 -23t-6 4q0 3 2.5 5.5t7.5 6.5t7 6z" />
    <glyph glyph-name="uni1FA3" unicode="&#x1fa3;" horiz-adv-x="730" 
d="M307 -100q6 0 6 -6q0 -4 -15.5 -16.5t-31 -35t-15.5 -48.5q0 -24 18.5 -41t45.5 -17q12 0 29 4l17 5q2 0 2 -3q0 -2 -16 -8t-37.5 -11t-34.5 -5q-86 0 -86 58q0 33 29 64t56 45.5t33 14.5zM595 415q0 13 30 29q5 3 10.5 6.5t9 6t7 4t5.5 1.5q6 0 6 -8q0 -7 -1 -13.5
t-1 -19.5q0 -21 23.5 -41t65.5 -20q33 0 106 44q9 6 10 6q4 0 4 -4t-6 -8q-106 -74 -174 -74q4 -32 4 -54q0 -65 -20.5 -118.5t-50.5 -85.5t-66.5 -53.5t-66.5 -30t-52 -8.5q-65 0 -94 52q-4 8 -12 30q-32 -27 -76.5 -47.5t-83.5 -20.5q-37 0 -69 24.5t-32 80.5
q0 103 99 222q4 4 11.5 13t11.5 14l10 12.5t9.5 13t7.5 11.5t5.5 11t1.5 9q0 27 -26 27q-25 0 -67 -28q-9 -6 -10 -6q-4 0 -4 4t6 8q9 7 26 18t45.5 24.5t45.5 13.5q58 0 58 -39q0 -14 -11.5 -31t-36 -43t-31.5 -35q-80 -101 -80 -191q0 -105 72 -105q60 0 112 74q0 38 6 68
t15 46.5t18 27.5t15 14l6 4q4 3 18.5 8.5t17.5 5.5q14 0 14 -18q0 -51 -44 -118q2 -44 28.5 -82t65.5 -38q50 0 86 43t50 92t14 91q0 69 -23 121q-18 39 -18 60zM629 552q0 -5 -8 -5q-6 0 -11 14l-50 154q-10 27 -10 42q0 8 8 20t16 12q9 0 12 -15l39 -199q4 -20 4 -23z
M458 568q10 -15 10 -16q0 -6 -8 -6q-4 0 -12.5 13.5t-16.5 39.5t-8 52q0 51 28.5 88t47.5 37q5 0 13.5 -7t8.5 -15q0 -2 -18.5 -18.5t-37.5 -47t-19 -66.5q0 -33 12 -54z" />
    <glyph glyph-name="omegatonos" unicode="&#x3ce;" horiz-adv-x="730" 
d="M485 573l186 189q24 24 28 24t9.5 -11t5.5 -16q0 -12 -10 -19l-211 -180q-13 -13 -20 -13q-5 0 -5 5q0 4 17 21zM595 415q0 13 30 29q5 3 10.5 6.5t9 6t7 4t5.5 1.5q6 0 6 -8q0 -7 -1 -13.5t-1 -19.5q0 -21 23.5 -41t65.5 -20q33 0 106 44q9 6 10 6q4 0 4 -4t-6 -8
q-106 -74 -174 -74q4 -32 4 -54q0 -65 -20.5 -118.5t-50.5 -85.5t-66.5 -53.5t-66.5 -30t-52 -8.5q-65 0 -94 52q-4 8 -12 30q-32 -27 -76.5 -47.5t-83.5 -20.5q-37 0 -69 24.5t-32 80.5q0 103 99 222q4 4 11.5 13t11.5 14l10 12.5t9.5 13t7.5 11.5t5.5 11t1.5 9
q0 27 -26 27q-25 0 -67 -28q-9 -6 -10 -6q-4 0 -4 4t6 8q9 7 26 18t45.5 24.5t45.5 13.5q58 0 58 -39q0 -14 -11.5 -31t-36 -43t-31.5 -35q-80 -101 -80 -191q0 -105 72 -105q60 0 112 74q0 38 6 68t15 46.5t18 27.5t15 14l6 4q4 3 18.5 8.5t17.5 5.5q14 0 14 -18
q0 -51 -44 -118q2 -44 28.5 -82t65.5 -38q50 0 86 43t50 92t14 91q0 69 -23 121q-18 39 -18 60z" />
    <glyph glyph-name="uni1F65" unicode="&#x1f65;" horiz-adv-x="730" 
d="M534 573l186 189q24 24 28 24t9.5 -11t5.5 -16q0 -12 -10 -19l-211 -180q-13 -13 -20 -13q-5 0 -5 5q0 4 17 21zM476 568q10 -15 10 -16q0 -6 -8 -6q-4 0 -12.5 13.5t-16.5 39.5t-8 52q0 51 28.5 88t47.5 37q5 0 13.5 -7t8.5 -15q0 -2 -18.5 -18.5t-37.5 -47t-19 -66.5
q0 -33 12 -54zM595 415q0 13 30 29q5 3 10.5 6.5t9 6t7 4t5.5 1.5q6 0 6 -8q0 -7 -1 -13.5t-1 -19.5q0 -21 23.5 -41t65.5 -20q33 0 106 44q9 6 10 6q4 0 4 -4t-6 -8q-106 -74 -174 -74q4 -32 4 -54q0 -65 -20.5 -118.5t-50.5 -85.5t-66.5 -53.5t-66.5 -30t-52 -8.5
q-65 0 -94 52q-4 8 -12 30q-32 -27 -76.5 -47.5t-83.5 -20.5q-37 0 -69 24.5t-32 80.5q0 103 99 222q4 4 11.5 13t11.5 14l10 12.5t9.5 13t7.5 11.5t5.5 11t1.5 9q0 27 -26 27q-25 0 -67 -28q-9 -6 -10 -6q-4 0 -4 4t6 8q9 7 26 18t45.5 24.5t45.5 13.5q58 0 58 -39
q0 -14 -11.5 -31t-36 -43t-31.5 -35q-80 -101 -80 -191q0 -105 72 -105q60 0 112 74q0 38 6 68t15 46.5t18 27.5t15 14l6 4q4 3 18.5 8.5t17.5 5.5q14 0 14 -18q0 -51 -44 -118q2 -44 28.5 -82t65.5 -38q50 0 86 43t50 92t14 91q0 69 -23 121q-18 39 -18 60z" />
    <glyph glyph-name="uni1F64" unicode="&#x1f64;" horiz-adv-x="730" 
d="M450 568q42 42 42 109q0 23 -7 37.5t-14 22t-7 12.5q0 9 13 18t19 9q14 0 25 -23t11 -46q0 -35 -22 -75t-43.5 -63t-27.5 -23t-6 4q0 3 2.5 5.5t7.5 6.5t7 6zM534 573l186 189q24 24 28 24t9.5 -11t5.5 -16q0 -12 -10 -19l-211 -180q-13 -13 -20 -13q-5 0 -5 5q0 4 17 21
zM595 415q0 13 30 29q5 3 10.5 6.5t9 6t7 4t5.5 1.5q6 0 6 -8q0 -7 -1 -13.5t-1 -19.5q0 -21 23.5 -41t65.5 -20q33 0 106 44q9 6 10 6q4 0 4 -4t-6 -8q-106 -74 -174 -74q4 -32 4 -54q0 -65 -20.5 -118.5t-50.5 -85.5t-66.5 -53.5t-66.5 -30t-52 -8.5q-65 0 -94 52
q-4 8 -12 30q-32 -27 -76.5 -47.5t-83.5 -20.5q-37 0 -69 24.5t-32 80.5q0 103 99 222q4 4 11.5 13t11.5 14l10 12.5t9.5 13t7.5 11.5t5.5 11t1.5 9q0 27 -26 27q-25 0 -67 -28q-9 -6 -10 -6q-4 0 -4 4t6 8q9 7 26 18t45.5 24.5t45.5 13.5q58 0 58 -39q0 -14 -11.5 -31
t-36 -43t-31.5 -35q-80 -101 -80 -191q0 -105 72 -105q60 0 112 74q0 38 6 68t15 46.5t18 27.5t15 14l6 4q4 3 18.5 8.5t17.5 5.5q14 0 14 -18q0 -51 -44 -118q2 -44 28.5 -82t65.5 -38q50 0 86 43t50 92t14 91q0 69 -23 121q-18 39 -18 60z" />
    <glyph glyph-name="uni1F62" unicode="&#x1f62;" horiz-adv-x="730" 
d="M619 552q0 -5 -8 -5q-6 0 -11 14l-50 154q-10 27 -10 42q0 8 8 20t16 12q9 0 12 -15l39 -199q4 -20 4 -23zM444 568q42 42 42 109q0 23 -7 37.5t-14 22t-7 12.5q0 9 13 18t19 9q14 0 25 -23t11 -46q0 -35 -22 -75t-43.5 -63t-27.5 -23t-6 4q0 3 2.5 5.5t7.5 6.5t7 6z
M595 415q0 13 30 29q5 3 10.5 6.5t9 6t7 4t5.5 1.5q6 0 6 -8q0 -7 -1 -13.5t-1 -19.5q0 -21 23.5 -41t65.5 -20q33 0 106 44q9 6 10 6q4 0 4 -4t-6 -8q-106 -74 -174 -74q4 -32 4 -54q0 -65 -20.5 -118.5t-50.5 -85.5t-66.5 -53.5t-66.5 -30t-52 -8.5q-65 0 -94 52
q-4 8 -12 30q-32 -27 -76.5 -47.5t-83.5 -20.5q-37 0 -69 24.5t-32 80.5q0 103 99 222q4 4 11.5 13t11.5 14l10 12.5t9.5 13t7.5 11.5t5.5 11t1.5 9q0 27 -26 27q-25 0 -67 -28q-9 -6 -10 -6q-4 0 -4 4t6 8q9 7 26 18t45.5 24.5t45.5 13.5q58 0 58 -39q0 -14 -11.5 -31
t-36 -43t-31.5 -35q-80 -101 -80 -191q0 -105 72 -105q60 0 112 74q0 38 6 68t15 46.5t18 27.5t15 14l6 4q4 3 18.5 8.5t17.5 5.5q14 0 14 -18q0 -51 -44 -118q2 -44 28.5 -82t65.5 -38q50 0 86 43t50 92t14 91q0 69 -23 121q-18 39 -18 60z" />
    <glyph glyph-name="uni1FF4" unicode="&#x1ff4;" horiz-adv-x="730" 
d="M309 -86q6 0 6 -6q0 -4 -15.5 -16.5t-31 -35t-15.5 -48.5q0 -24 18.5 -41t45.5 -17q12 0 29 4l17 5q2 0 2 -3q0 -2 -16 -8t-37.5 -11t-34.5 -5q-86 0 -86 58q0 33 29 64t56 45.5t33 14.5zM595 415q0 13 30 29q5 3 10.5 6.5t9 6t7 4t5.5 1.5q6 0 6 -8q0 -7 -1 -13.5
t-1 -19.5q0 -21 23.5 -41t65.5 -20q33 0 106 44q9 6 10 6q4 0 4 -4t-6 -8q-106 -74 -174 -74q4 -32 4 -54q0 -65 -20.5 -118.5t-50.5 -85.5t-66.5 -53.5t-66.5 -30t-52 -8.5q-65 0 -94 52q-4 8 -12 30q-32 -27 -76.5 -47.5t-83.5 -20.5q-37 0 -69 24.5t-32 80.5
q0 103 99 222q4 4 11.5 13t11.5 14l10 12.5t9.5 13t7.5 11.5t5.5 11t1.5 9q0 27 -26 27q-25 0 -67 -28q-9 -6 -10 -6q-4 0 -4 4t6 8q9 7 26 18t45.5 24.5t45.5 13.5q58 0 58 -39q0 -14 -11.5 -31t-36 -43t-31.5 -35q-80 -101 -80 -191q0 -105 72 -105q60 0 112 74q0 38 6 68
t15 46.5t18 27.5t15 14l6 4q4 3 18.5 8.5t17.5 5.5q14 0 14 -18q0 -51 -44 -118q2 -44 28.5 -82t65.5 -38q50 0 86 43t50 92t14 91q0 69 -23 121q-18 39 -18 60zM485 573l186 189q24 24 28 24t9.5 -11t5.5 -16q0 -12 -10 -19l-211 -180q-13 -13 -20 -13q-5 0 -5 5q0 4 17 21
z" />
    <glyph glyph-name="uni1FA5" unicode="&#x1fa5;" horiz-adv-x="730" 
d="M307 -100q6 0 6 -6q0 -4 -15.5 -16.5t-31 -35t-15.5 -48.5q0 -24 18.5 -41t45.5 -17q12 0 29 4l17 5q2 0 2 -3q0 -2 -16 -8t-37.5 -11t-34.5 -5q-86 0 -86 58q0 33 29 64t56 45.5t33 14.5zM595 415q0 13 30 29q5 3 10.5 6.5t9 6t7 4t5.5 1.5q6 0 6 -8q0 -7 -1 -13.5
t-1 -19.5q0 -21 23.5 -41t65.5 -20q33 0 106 44q9 6 10 6q4 0 4 -4t-6 -8q-106 -74 -174 -74q4 -32 4 -54q0 -65 -20.5 -118.5t-50.5 -85.5t-66.5 -53.5t-66.5 -30t-52 -8.5q-65 0 -94 52q-4 8 -12 30q-32 -27 -76.5 -47.5t-83.5 -20.5q-37 0 -69 24.5t-32 80.5
q0 103 99 222q4 4 11.5 13t11.5 14l10 12.5t9.5 13t7.5 11.5t5.5 11t1.5 9q0 27 -26 27q-25 0 -67 -28q-9 -6 -10 -6q-4 0 -4 4t6 8q9 7 26 18t45.5 24.5t45.5 13.5q58 0 58 -39q0 -14 -11.5 -31t-36 -43t-31.5 -35q-80 -101 -80 -191q0 -105 72 -105q60 0 112 74q0 38 6 68
t15 46.5t18 27.5t15 14l6 4q4 3 18.5 8.5t17.5 5.5q14 0 14 -18q0 -51 -44 -118q2 -44 28.5 -82t65.5 -38q50 0 86 43t50 92t14 91q0 69 -23 121q-18 39 -18 60zM534 573l186 189q24 24 28 24t9.5 -11t5.5 -16q0 -12 -10 -19l-211 -180q-13 -13 -20 -13q-5 0 -5 5q0 4 17 21
zM476 568q10 -15 10 -16q0 -6 -8 -6q-4 0 -12.5 13.5t-16.5 39.5t-8 52q0 51 28.5 88t47.5 37q5 0 13.5 -7t8.5 -15q0 -2 -18.5 -18.5t-37.5 -47t-19 -66.5q0 -33 12 -54z" />
    <glyph glyph-name="uni1FA4" unicode="&#x1fa4;" horiz-adv-x="730" 
d="M307 -100q6 0 6 -6q0 -4 -15.5 -16.5t-31 -35t-15.5 -48.5q0 -24 18.5 -41t45.5 -17q12 0 29 4l17 5q2 0 2 -3q0 -2 -16 -8t-37.5 -11t-34.5 -5q-86 0 -86 58q0 33 29 64t56 45.5t33 14.5zM595 415q0 13 30 29q5 3 10.5 6.5t9 6t7 4t5.5 1.5q6 0 6 -8q0 -7 -1 -13.5
t-1 -19.5q0 -21 23.5 -41t65.5 -20q33 0 106 44q9 6 10 6q4 0 4 -4t-6 -8q-106 -74 -174 -74q4 -32 4 -54q0 -65 -20.5 -118.5t-50.5 -85.5t-66.5 -53.5t-66.5 -30t-52 -8.5q-65 0 -94 52q-4 8 -12 30q-32 -27 -76.5 -47.5t-83.5 -20.5q-37 0 -69 24.5t-32 80.5
q0 103 99 222q4 4 11.5 13t11.5 14l10 12.5t9.5 13t7.5 11.5t5.5 11t1.5 9q0 27 -26 27q-25 0 -67 -28q-9 -6 -10 -6q-4 0 -4 4t6 8q9 7 26 18t45.5 24.5t45.5 13.5q58 0 58 -39q0 -14 -11.5 -31t-36 -43t-31.5 -35q-80 -101 -80 -191q0 -105 72 -105q60 0 112 74q0 38 6 68
t15 46.5t18 27.5t15 14l6 4q4 3 18.5 8.5t17.5 5.5q14 0 14 -18q0 -51 -44 -118q2 -44 28.5 -82t65.5 -38q50 0 86 43t50 92t14 91q0 69 -23 121q-18 39 -18 60zM450 568q42 42 42 109q0 23 -7 37.5t-14 22t-7 12.5q0 9 13 18t19 9q14 0 25 -23t11 -46q0 -35 -22 -75
t-43.5 -63t-27.5 -23t-6 4q0 3 2.5 5.5t7.5 6.5t7 6zM534 573l186 189q24 24 28 24t9.5 -11t5.5 -16q0 -12 -10 -19l-211 -180q-13 -13 -20 -13q-5 0 -5 5q0 4 17 21z" />
    <glyph glyph-name="uni1FA2" unicode="&#x1fa2;" horiz-adv-x="730" 
d="M307 -100q6 0 6 -6q0 -4 -15.5 -16.5t-31 -35t-15.5 -48.5q0 -24 18.5 -41t45.5 -17q12 0 29 4l17 5q2 0 2 -3q0 -2 -16 -8t-37.5 -11t-34.5 -5q-86 0 -86 58q0 33 29 64t56 45.5t33 14.5zM595 415q0 13 30 29q5 3 10.5 6.5t9 6t7 4t5.5 1.5q6 0 6 -8q0 -7 -1 -13.5
t-1 -19.5q0 -21 23.5 -41t65.5 -20q33 0 106 44q9 6 10 6q4 0 4 -4t-6 -8q-106 -74 -174 -74q4 -32 4 -54q0 -65 -20.5 -118.5t-50.5 -85.5t-66.5 -53.5t-66.5 -30t-52 -8.5q-65 0 -94 52q-4 8 -12 30q-32 -27 -76.5 -47.5t-83.5 -20.5q-37 0 -69 24.5t-32 80.5
q0 103 99 222q4 4 11.5 13t11.5 14l10 12.5t9.5 13t7.5 11.5t5.5 11t1.5 9q0 27 -26 27q-25 0 -67 -28q-9 -6 -10 -6q-4 0 -4 4t6 8q9 7 26 18t45.5 24.5t45.5 13.5q58 0 58 -39q0 -14 -11.5 -31t-36 -43t-31.5 -35q-80 -101 -80 -191q0 -105 72 -105q60 0 112 74q0 38 6 68
t15 46.5t18 27.5t15 14l6 4q4 3 18.5 8.5t17.5 5.5q14 0 14 -18q0 -51 -44 -118q2 -44 28.5 -82t65.5 -38q50 0 86 43t50 92t14 91q0 69 -23 121q-18 39 -18 60zM619 552q0 -5 -8 -5q-6 0 -11 14l-50 154q-10 27 -10 42q0 8 8 20t16 12q9 0 12 -15l39 -199q4 -20 4 -23z
M444 568q42 42 42 109q0 23 -7 37.5t-14 22t-7 12.5q0 9 13 18t19 9q14 0 25 -23t11 -46q0 -35 -22 -75t-43.5 -63t-27.5 -23t-6 4q0 3 2.5 5.5t7.5 6.5t7 6z" />
    <glyph glyph-name="uni1FF6" unicode="&#x1ff6;" horiz-adv-x="730" 
d="M516 690q27 0 48 -20t40 -39.5t41 -19.5q38 0 76 55q10 14 18 17q10 3 14 3l2 -1q0 -4 -17.5 -25t-55 -44.5t-77.5 -23.5q-24 0 -44 19t-38.5 38t-40.5 19q-12 0 -23.5 -3.5t-18.5 -6.5t-18 -12.5t-15 -13t-16.5 -17.5t-14.5 -16q-4 -4 -12 -7q-9 -4 -11 -4t-2 2
q0 7 42 43q67 57 123 57zM595 415q0 13 30 29q5 3 10.5 6.5t9 6t7 4t5.5 1.5q6 0 6 -8q0 -7 -1 -13.5t-1 -19.5q0 -21 23.5 -41t65.5 -20q33 0 106 44q9 6 10 6q4 0 4 -4t-6 -8q-106 -74 -174 -74q4 -32 4 -54q0 -65 -20.5 -118.5t-50.5 -85.5t-66.5 -53.5t-66.5 -30
t-52 -8.5q-65 0 -94 52q-4 8 -12 30q-32 -27 -76.5 -47.5t-83.5 -20.5q-37 0 -69 24.5t-32 80.5q0 103 99 222q4 4 11.5 13t11.5 14l10 12.5t9.5 13t7.5 11.5t5.5 11t1.5 9q0 27 -26 27q-25 0 -67 -28q-9 -6 -10 -6q-4 0 -4 4t6 8q9 7 26 18t45.5 24.5t45.5 13.5
q58 0 58 -39q0 -14 -11.5 -31t-36 -43t-31.5 -35q-80 -101 -80 -191q0 -105 72 -105q60 0 112 74q0 38 6 68t15 46.5t18 27.5t15 14l6 4q4 3 18.5 8.5t17.5 5.5q14 0 14 -18q0 -51 -44 -118q2 -44 28.5 -82t65.5 -38q50 0 86 43t50 92t14 91q0 69 -23 121q-18 39 -18 60z
" />
    <glyph glyph-name="uni1F67" unicode="&#x1f67;" horiz-adv-x="730" 
d="M562 840q27 0 48 -20t40 -39.5t41 -19.5q38 0 76 55q10 14 18 17q10 3 14 3l2 -1q0 -4 -17.5 -25t-55 -44.5t-77.5 -23.5q-24 0 -44 19t-38.5 38t-40.5 19q-12 0 -23.5 -3.5t-18.5 -6.5t-18 -12.5t-15 -13t-16.5 -17.5t-14.5 -16q-4 -4 -12 -7q-9 -4 -11 -4t-2 2
q0 7 42 43q67 57 123 57zM527 576q2 -3 6.5 -8.5t8 -9.5t3.5 -7q0 -4 -4 -4q-10 0 -26 31q-22 36 -22 74t24 62q20 20 34 20q6 0 14 -10t8 -20q0 -5 -2 -6.5t-9 -3.5t-11 -4q-37 -17 -37 -67q0 -25 13 -47zM595 415q0 13 30 29q5 3 10.5 6.5t9 6t7 4t5.5 1.5q6 0 6 -8
q0 -7 -1 -13.5t-1 -19.5q0 -21 23.5 -41t65.5 -20q33 0 106 44q9 6 10 6q4 0 4 -4t-6 -8q-106 -74 -174 -74q4 -32 4 -54q0 -65 -20.5 -118.5t-50.5 -85.5t-66.5 -53.5t-66.5 -30t-52 -8.5q-65 0 -94 52q-4 8 -12 30q-32 -27 -76.5 -47.5t-83.5 -20.5q-37 0 -69 24.5
t-32 80.5q0 103 99 222q4 4 11.5 13t11.5 14l10 12.5t9.5 13t7.5 11.5t5.5 11t1.5 9q0 27 -26 27q-25 0 -67 -28q-9 -6 -10 -6q-4 0 -4 4t6 8q9 7 26 18t45.5 24.5t45.5 13.5q58 0 58 -39q0 -14 -11.5 -31t-36 -43t-31.5 -35q-80 -101 -80 -191q0 -105 72 -105q60 0 112 74
q0 38 6 68t15 46.5t18 27.5t15 14l6 4q4 3 18.5 8.5t17.5 5.5q14 0 14 -18q0 -51 -44 -118q2 -44 28.5 -82t65.5 -38q50 0 86 43t50 92t14 91q0 69 -23 121q-18 39 -18 60z" />
    <glyph glyph-name="uni1F66" unicode="&#x1f66;" horiz-adv-x="730" 
d="M562 840q27 0 48 -20t40 -39.5t41 -19.5q38 0 76 55q10 14 18 17q10 3 14 3l2 -1q0 -4 -17.5 -25t-55 -44.5t-77.5 -23.5q-24 0 -44 19t-38.5 38t-40.5 19q-12 0 -23.5 -3.5t-18.5 -6.5t-18 -12.5t-15 -13t-16.5 -17.5t-14.5 -16q-4 -4 -12 -7q-9 -4 -11 -4t-2 2
q0 7 42 43q67 57 123 57zM517 571q32 29 32 70q0 32 -20 50q-3 2 -6.5 5t-5.5 4.5t-3.5 3t-1.5 3.5q0 9 11 18t17 9q9 0 20 -15q19 -23 19 -54q0 -52 -50 -96q-24 -22 -32 -22q-6 0 -6 4q0 3 4.5 6t11.5 7t10 7zM595 415q0 13 30 29q5 3 10.5 6.5t9 6t7 4t5.5 1.5q6 0 6 -8
q0 -7 -1 -13.5t-1 -19.5q0 -21 23.5 -41t65.5 -20q33 0 106 44q9 6 10 6q4 0 4 -4t-6 -8q-106 -74 -174 -74q4 -32 4 -54q0 -65 -20.5 -118.5t-50.5 -85.5t-66.5 -53.5t-66.5 -30t-52 -8.5q-65 0 -94 52q-4 8 -12 30q-32 -27 -76.5 -47.5t-83.5 -20.5q-37 0 -69 24.5
t-32 80.5q0 103 99 222q4 4 11.5 13t11.5 14l10 12.5t9.5 13t7.5 11.5t5.5 11t1.5 9q0 27 -26 27q-25 0 -67 -28q-9 -6 -10 -6q-4 0 -4 4t6 8q9 7 26 18t45.5 24.5t45.5 13.5q58 0 58 -39q0 -14 -11.5 -31t-36 -43t-31.5 -35q-80 -101 -80 -191q0 -105 72 -105q60 0 112 74
q0 38 6 68t15 46.5t18 27.5t15 14l6 4q4 3 18.5 8.5t17.5 5.5q14 0 14 -18q0 -51 -44 -118q2 -44 28.5 -82t65.5 -38q50 0 86 43t50 92t14 91q0 69 -23 121q-18 39 -18 60z" />
    <glyph glyph-name="uni03DC" unicode="&#x3dc;" horiz-adv-x="670" 
d="M480 886q85 0 203.5 -11.5t208.5 -11.5q118 0 129 58q3 18 10 18q8 0 8 -9q0 -35 -69 -75t-151 -40q-58 0 -212 19q-7 -12 -195 -358h138q64 0 117 3t80.5 6t28.5 3q5 0 5 -4q0 -1 -1 -2t-3 -4t-5 -8q-2 -4 -4.5 -9.5t-3.5 -8t-3 -5.5t-4 -4t-5 -1q-75 0 -211.5 3.5
t-143.5 3.5q-142 -265 -201 -388q-20 -41 -31.5 -49t-45.5 -12q-25 -3 -43.5 -10t-22.5 -7q-7 0 -7 5q0 2 3.5 5.5t12 14.5t18.5 26q66 102 128 214q24 43 110 202q-21 -1 -25 -1q-13 0 -13 13q0 15 53 15q111 209 184 366q-59 2 -73 2q-125 0 -190 -63q-20 -20 -22 -20
q-6 0 -6 6t22 28q88 90 232 90z" />
    <glyph glyph-name="uni1FF7" unicode="&#x1ff7;" horiz-adv-x="730" 
d="M309 -86q6 0 6 -6q0 -4 -15.5 -16.5t-31 -35t-15.5 -48.5q0 -24 18.5 -41t45.5 -17q12 0 29 4l17 5q2 0 2 -3q0 -2 -16 -8t-37.5 -11t-34.5 -5q-86 0 -86 58q0 33 29 64t56 45.5t33 14.5zM595 415q0 13 30 29q5 3 10.5 6.5t9 6t7 4t5.5 1.5q6 0 6 -8q0 -7 -1 -13.5
t-1 -19.5q0 -21 23.5 -41t65.5 -20q33 0 106 44q9 6 10 6q4 0 4 -4t-6 -8q-106 -74 -174 -74q4 -32 4 -54q0 -65 -20.5 -118.5t-50.5 -85.5t-66.5 -53.5t-66.5 -30t-52 -8.5q-65 0 -94 52q-4 8 -12 30q-32 -27 -76.5 -47.5t-83.5 -20.5q-37 0 -69 24.5t-32 80.5
q0 103 99 222q4 4 11.5 13t11.5 14l10 12.5t9.5 13t7.5 11.5t5.5 11t1.5 9q0 27 -26 27q-25 0 -67 -28q-9 -6 -10 -6q-4 0 -4 4t6 8q9 7 26 18t45.5 24.5t45.5 13.5q58 0 58 -39q0 -14 -11.5 -31t-36 -43t-31.5 -35q-80 -101 -80 -191q0 -105 72 -105q60 0 112 74q0 38 6 68
t15 46.5t18 27.5t15 14l6 4q4 3 18.5 8.5t17.5 5.5q14 0 14 -18q0 -51 -44 -118q2 -44 28.5 -82t65.5 -38q50 0 86 43t50 92t14 91q0 69 -23 121q-18 39 -18 60zM516 690q27 0 48 -20t40 -39.5t41 -19.5q38 0 76 55q10 14 18 17q10 3 14 3l2 -1q0 -4 -17.5 -25t-55 -44.5
t-77.5 -23.5q-24 0 -44 19t-38.5 38t-40.5 19q-12 0 -23.5 -3.5t-18.5 -6.5t-18 -12.5t-15 -13t-16.5 -17.5t-14.5 -16q-4 -4 -12 -7q-9 -4 -11 -4t-2 2q0 7 42 43q67 57 123 57z" />
    <glyph glyph-name="uni1FA7" unicode="&#x1fa7;" horiz-adv-x="730" 
d="M307 -100q6 0 6 -6q0 -4 -15.5 -16.5t-31 -35t-15.5 -48.5q0 -24 18.5 -41t45.5 -17q12 0 29 4l17 5q2 0 2 -3q0 -2 -16 -8t-37.5 -11t-34.5 -5q-86 0 -86 58q0 33 29 64t56 45.5t33 14.5zM595 415q0 13 30 29q5 3 10.5 6.5t9 6t7 4t5.5 1.5q6 0 6 -8q0 -7 -1 -13.5
t-1 -19.5q0 -21 23.5 -41t65.5 -20q33 0 106 44q9 6 10 6q4 0 4 -4t-6 -8q-106 -74 -174 -74q4 -32 4 -54q0 -65 -20.5 -118.5t-50.5 -85.5t-66.5 -53.5t-66.5 -30t-52 -8.5q-65 0 -94 52q-4 8 -12 30q-32 -27 -76.5 -47.5t-83.5 -20.5q-37 0 -69 24.5t-32 80.5
q0 103 99 222q4 4 11.5 13t11.5 14l10 12.5t9.5 13t7.5 11.5t5.5 11t1.5 9q0 27 -26 27q-25 0 -67 -28q-9 -6 -10 -6q-4 0 -4 4t6 8q9 7 26 18t45.5 24.5t45.5 13.5q58 0 58 -39q0 -14 -11.5 -31t-36 -43t-31.5 -35q-80 -101 -80 -191q0 -105 72 -105q60 0 112 74q0 38 6 68
t15 46.5t18 27.5t15 14l6 4q4 3 18.5 8.5t17.5 5.5q14 0 14 -18q0 -51 -44 -118q2 -44 28.5 -82t65.5 -38q50 0 86 43t50 92t14 91q0 69 -23 121q-18 39 -18 60zM562 840q27 0 48 -20t40 -39.5t41 -19.5q38 0 76 55q10 14 18 17q10 3 14 3l2 -1q0 -4 -17.5 -25t-55 -44.5
t-77.5 -23.5q-24 0 -44 19t-38.5 38t-40.5 19q-12 0 -23.5 -3.5t-18.5 -6.5t-18 -12.5t-15 -13t-16.5 -17.5t-14.5 -16q-4 -4 -12 -7q-9 -4 -11 -4t-2 2q0 7 42 43q67 57 123 57zM527 576q2 -3 6.5 -8.5t8 -9.5t3.5 -7q0 -4 -4 -4q-10 0 -26 31q-22 36 -22 74t24 62
q20 20 34 20q6 0 14 -10t8 -20q0 -5 -2 -6.5t-9 -3.5t-11 -4q-37 -17 -37 -67q0 -25 13 -47z" />
    <glyph glyph-name="uni1FA6" unicode="&#x1fa6;" horiz-adv-x="730" 
d="M307 -100q6 0 6 -6q0 -4 -15.5 -16.5t-31 -35t-15.5 -48.5q0 -24 18.5 -41t45.5 -17q12 0 29 4l17 5q2 0 2 -3q0 -2 -16 -8t-37.5 -11t-34.5 -5q-86 0 -86 58q0 33 29 64t56 45.5t33 14.5zM595 415q0 13 30 29q5 3 10.5 6.5t9 6t7 4t5.5 1.5q6 0 6 -8q0 -7 -1 -13.5
t-1 -19.5q0 -21 23.5 -41t65.5 -20q33 0 106 44q9 6 10 6q4 0 4 -4t-6 -8q-106 -74 -174 -74q4 -32 4 -54q0 -65 -20.5 -118.5t-50.5 -85.5t-66.5 -53.5t-66.5 -30t-52 -8.5q-65 0 -94 52q-4 8 -12 30q-32 -27 -76.5 -47.5t-83.5 -20.5q-37 0 -69 24.5t-32 80.5
q0 103 99 222q4 4 11.5 13t11.5 14l10 12.5t9.5 13t7.5 11.5t5.5 11t1.5 9q0 27 -26 27q-25 0 -67 -28q-9 -6 -10 -6q-4 0 -4 4t6 8q9 7 26 18t45.5 24.5t45.5 13.5q58 0 58 -39q0 -14 -11.5 -31t-36 -43t-31.5 -35q-80 -101 -80 -191q0 -105 72 -105q60 0 112 74q0 38 6 68
t15 46.5t18 27.5t15 14l6 4q4 3 18.5 8.5t17.5 5.5q14 0 14 -18q0 -51 -44 -118q2 -44 28.5 -82t65.5 -38q50 0 86 43t50 92t14 91q0 69 -23 121q-18 39 -18 60zM562 840q27 0 48 -20t40 -39.5t41 -19.5q38 0 76 55q10 14 18 17q10 3 14 3l2 -1q0 -4 -17.5 -25t-55 -44.5
t-77.5 -23.5q-24 0 -44 19t-38.5 38t-40.5 19q-12 0 -23.5 -3.5t-18.5 -6.5t-18 -12.5t-15 -13t-16.5 -17.5t-14.5 -16q-4 -4 -12 -7q-9 -4 -11 -4t-2 2q0 7 42 43q67 57 123 57zM517 571q32 29 32 70q0 32 -20 50q-3 2 -6.5 5t-5.5 4.5t-3.5 3t-1.5 3.5q0 9 11 18t17 9
q9 0 20 -15q19 -23 19 -54q0 -52 -50 -96q-24 -22 -32 -22q-6 0 -6 4q0 3 4.5 6t11.5 7t10 7z" />
    <glyph glyph-name="uni1F76" unicode="&#x1f76;" horiz-adv-x="374" 
d="M372 551q0 -5 -8 -5q-6 0 -11 14l-50 154q-10 27 -10 42q0 8 8 20t16 12q9 0 12 -15l39 -199q4 -20 4 -23zM305 411q0 -42 -76 -165t-76 -165q0 -55 75 -55q59 0 168 82q62 48 136 140q4 6 8 6t4 -4q0 -2 -2 -6q-68 -92 -138 -146q-51 -41 -114.5 -73.5t-119.5 -32.5
q-44 0 -70.5 19.5t-26.5 57.5q0 43 38.5 114t77.5 133t39 84q0 32 -20 32q-23 0 -74 -34q-9 -6 -10 -6q-4 0 -4 4t6 8q75 56 120 56q29 0 44 -13.5t15 -35.5z" />
    <glyph glyph-name="uni1F31" unicode="&#x1f31;" horiz-adv-x="374" 
d="M355 568q10 -15 10 -16q0 -6 -8 -6q-4 0 -12.5 13.5t-16.5 39.5t-8 52q0 51 28.5 88t47.5 37q5 0 13.5 -7t8.5 -15q0 -3 -11.5 -14t-26 -25t-26 -39.5t-11.5 -53.5q0 -33 12 -54zM305 411q0 -42 -76 -165t-76 -165q0 -55 75 -55q59 0 168 82q62 48 136 140q4 6 8 6t4 -4
q0 -2 -2 -6q-68 -92 -138 -146q-51 -41 -114.5 -73.5t-119.5 -32.5q-44 0 -70.5 19.5t-26.5 57.5q0 43 38.5 114t77.5 133t39 84q0 32 -20 32q-23 0 -74 -34q-9 -6 -10 -6q-4 0 -4 4t6 8q75 56 120 56q29 0 44 -13.5t15 -35.5z" />
    <glyph glyph-name="uni1F30" unicode="&#x1f30;" horiz-adv-x="374" 
d="M335 568q42 42 42 109q0 23 -7 37.5t-14 22t-7 12.5q0 9 13 18t19 9q14 0 25 -23t11 -46q0 -35 -22 -75t-43.5 -63t-27.5 -23t-6 4q0 3 2.5 5.5t7.5 6.5t7 6zM305 411q0 -42 -76 -165t-76 -165q0 -55 75 -55q59 0 168 82q62 48 136 140q4 6 8 6t4 -4q0 -2 -2 -6
q-68 -92 -138 -146q-51 -41 -114.5 -73.5t-119.5 -32.5q-44 0 -70.5 19.5t-26.5 57.5q0 43 38.5 114t77.5 133t39 84q0 32 -20 32q-23 0 -74 -34q-9 -6 -10 -6q-4 0 -4 4t6 8q75 56 120 56q29 0 44 -13.5t15 -35.5z" />
    <glyph glyph-name="uni1F33" unicode="&#x1f33;" horiz-adv-x="374" 
d="M456 552q0 -5 -8 -5q-6 0 -11 14l-50 154q-10 27 -10 42q0 8 8 20t16 12q9 0 12 -15l39 -199q4 -20 4 -23zM285 568q10 -15 10 -16q0 -6 -8 -6q-4 0 -12.5 13.5t-16.5 39.5t-8 52q0 51 28.5 88t47.5 37q5 0 13.5 -7t8.5 -15q0 -3 -11.5 -14t-26 -25t-26 -39.5
t-11.5 -53.5q0 -33 12 -54zM305 411q0 -42 -76 -165t-76 -165q0 -55 75 -55q59 0 168 82q62 48 136 140q4 6 8 6t4 -4q0 -2 -2 -6q-68 -92 -138 -146q-51 -41 -114.5 -73.5t-119.5 -32.5q-44 0 -70.5 19.5t-26.5 57.5q0 43 38.5 114t77.5 133t39 84q0 32 -20 32
q-23 0 -74 -34q-9 -6 -10 -6q-4 0 -4 4t6 8q75 56 120 56q29 0 44 -13.5t15 -35.5z" />
    <glyph glyph-name="uni1F7A" unicode="&#x1f7a;" horiz-adv-x="622" 
d="M473 551q0 -5 -8 -5q-6 0 -11 14l-50 154q-10 27 -10 42q0 8 8 20t16 12q9 0 12 -15l39 -199q4 -20 4 -23zM237 460q58 0 58 -64q0 -24 -18 -59.5t-39.5 -66.5t-39.5 -73.5t-18 -79.5q0 -51 29.5 -77t72.5 -26q59 0 104 29.5t69.5 79t36.5 105t12 116.5q0 26 -8 42t-8 29
q0 4 2 7t6.5 6.5t7.5 5.5t9.5 5t8.5 4q6 4 14 10t13.5 9.5t8.5 3.5q8 0 8 -9q0 -7 -1 -17.5t-1 -21.5q0 -19 17.5 -37.5t46.5 -18.5q60 0 120 42q9 6 10 6q4 0 4 -4t-6 -8q-27 -19 -69.5 -38.5t-72.5 -19.5q-13 0 -23.5 1.5t-14.5 2.5l-4 2q0 -150 -99 -258t-239 -108
q-39 0 -66.5 14.5t-40 37t-18 42.5t-5.5 38q0 61 44 136q8 13 25 40t26 41.5t17 33.5t8 31q0 38 -25 38q-14 0 -65 -34q-9 -6 -10 -6q-4 0 -4 4t6 8q75 56 111 56z" />
    <glyph glyph-name="uni1F51" unicode="&#x1f51;" horiz-adv-x="622" 
d="M456 568q10 -15 10 -16q0 -6 -8 -6q-4 0 -12.5 13.5t-16.5 39.5t-8 52q0 51 28.5 88t47.5 37q5 0 13.5 -7t8.5 -15q0 -2 -18.5 -18.5t-37.5 -47t-19 -66.5q0 -33 12 -54zM237 460q58 0 58 -64q0 -24 -18 -59.5t-39.5 -66.5t-39.5 -73.5t-18 -79.5q0 -51 29.5 -77
t72.5 -26q59 0 104 29.5t69.5 79t36.5 105t12 116.5q0 26 -8 42t-8 29q0 4 2 7t6.5 6.5t7.5 5.5t9.5 5t8.5 4q6 4 14 10t13.5 9.5t8.5 3.5q8 0 8 -9q0 -7 -1 -17.5t-1 -21.5q0 -19 17.5 -37.5t46.5 -18.5q60 0 120 42q9 6 10 6q4 0 4 -4t-6 -8q-27 -19 -69.5 -38.5
t-72.5 -19.5q-13 0 -23.5 1.5t-14.5 2.5l-4 2q0 -150 -99 -258t-239 -108q-39 0 -66.5 14.5t-40 37t-18 42.5t-5.5 38q0 61 44 136q8 13 25 40t26 41.5t17 33.5t8 31q0 38 -25 38q-14 0 -65 -34q-9 -6 -10 -6q-4 0 -4 4t6 8q75 56 111 56z" />
    <glyph glyph-name="uni1F50" unicode="&#x1f50;" horiz-adv-x="622" 
d="M436 568q42 42 42 109q0 23 -7 37.5t-14 22t-7 12.5q0 9 13 18t19 9q14 0 25 -23t11 -46q0 -35 -22 -75t-43.5 -63t-27.5 -23t-6 4q0 3 2.5 5.5t7.5 6.5t7 6zM237 460q58 0 58 -64q0 -24 -18 -59.5t-39.5 -66.5t-39.5 -73.5t-18 -79.5q0 -51 29.5 -77t72.5 -26
q59 0 104 29.5t69.5 79t36.5 105t12 116.5q0 26 -8 42t-8 29q0 4 2 7t6.5 6.5t7.5 5.5t9.5 5t8.5 4q6 4 14 10t13.5 9.5t8.5 3.5q8 0 8 -9q0 -7 -1 -17.5t-1 -21.5q0 -19 17.5 -37.5t46.5 -18.5q60 0 120 42q9 6 10 6q4 0 4 -4t-6 -8q-27 -19 -69.5 -38.5t-72.5 -19.5
q-13 0 -23.5 1.5t-14.5 2.5l-4 2q0 -150 -99 -258t-239 -108q-39 0 -66.5 14.5t-40 37t-18 42.5t-5.5 38q0 61 44 136q8 13 25 40t26 41.5t17 33.5t8 31q0 38 -25 38q-14 0 -65 -34q-9 -6 -10 -6q-4 0 -4 4t6 8q75 56 111 56z" />
    <glyph glyph-name="uni1F53" unicode="&#x1f53;" horiz-adv-x="622" 
d="M557 552q0 -5 -8 -5q-6 0 -11 14l-50 154q-10 27 -10 42q0 8 8 20t16 12q9 0 12 -15l39 -199q4 -20 4 -23zM386 568q10 -15 10 -16q0 -6 -8 -6q-4 0 -12.5 13.5t-16.5 39.5t-8 52q0 51 28.5 88t47.5 37q5 0 13.5 -7t8.5 -15q0 -2 -18.5 -18.5t-37.5 -47t-19 -66.5
q0 -33 12 -54zM237 460q58 0 58 -64q0 -24 -18 -59.5t-39.5 -66.5t-39.5 -73.5t-18 -79.5q0 -51 29.5 -77t72.5 -26q59 0 104 29.5t69.5 79t36.5 105t12 116.5q0 26 -8 42t-8 29q0 4 2 7t6.5 6.5t7.5 5.5t9.5 5t8.5 4q6 4 14 10t13.5 9.5t8.5 3.5q8 0 8 -9q0 -7 -1 -17.5
t-1 -21.5q0 -19 17.5 -37.5t46.5 -18.5q60 0 120 42q9 6 10 6q4 0 4 -4t-6 -8q-27 -19 -69.5 -38.5t-72.5 -19.5q-13 0 -23.5 1.5t-14.5 2.5l-4 2q0 -150 -99 -258t-239 -108q-39 0 -66.5 14.5t-40 37t-18 42.5t-5.5 38q0 61 44 136q8 13 25 40t26 41.5t17 33.5t8 31
q0 38 -25 38q-14 0 -65 -34q-9 -6 -10 -6q-4 0 -4 4t6 8q75 56 111 56z" />
    <glyph glyph-name="iotatonos" unicode="&#x3af;" horiz-adv-x="374" 
d="M312 573l186 189q24 24 28 24t9.5 -11t5.5 -16q0 -12 -10 -19l-211 -180q-13 -13 -20 -13q-5 0 -5 5q0 4 17 21zM305 411q0 -42 -76 -165t-76 -165q0 -55 75 -55q59 0 168 82q62 48 136 140q4 6 8 6t4 -4q0 -2 -2 -6q-68 -92 -138 -146q-51 -41 -114.5 -73.5
t-119.5 -32.5q-44 0 -70.5 19.5t-26.5 57.5q0 43 38.5 114t77.5 133t39 84q0 32 -20 32q-23 0 -74 -34q-9 -6 -10 -6q-4 0 -4 4t6 8q75 56 120 56q29 0 44 -13.5t15 -35.5z" />
    <glyph glyph-name="uni1F35" unicode="&#x1f35;" horiz-adv-x="374" 
d="M361 573l186 189q24 24 28 24t9.5 -11t5.5 -16q0 -12 -10 -19l-211 -180q-13 -13 -20 -13q-5 0 -5 5q0 4 17 21zM303 568q10 -15 10 -16q0 -6 -8 -6q-4 0 -12.5 13.5t-16.5 39.5t-8 52q0 51 28.5 88t47.5 37q5 0 13.5 -7t8.5 -15q0 -3 -11.5 -14t-26 -25t-26 -39.5
t-11.5 -53.5q0 -33 12 -54zM305 411q0 -42 -76 -165t-76 -165q0 -55 75 -55q59 0 168 82q62 48 136 140q4 6 8 6t4 -4q0 -2 -2 -6q-68 -92 -138 -146q-51 -41 -114.5 -73.5t-119.5 -32.5q-44 0 -70.5 19.5t-26.5 57.5q0 43 38.5 114t77.5 133t39 84q0 32 -20 32
q-23 0 -74 -34q-9 -6 -10 -6q-4 0 -4 4t6 8q75 56 120 56q29 0 44 -13.5t15 -35.5z" />
    <glyph glyph-name="uni1F34" unicode="&#x1f34;" horiz-adv-x="374" 
d="M277 568q42 42 42 109q0 23 -7 37.5t-14 22t-7 12.5q0 9 13 18t19 9q14 0 25 -23t11 -46q0 -35 -22 -75t-43.5 -63t-27.5 -23t-6 4q0 3 2.5 5.5t7.5 6.5t7 6zM361 573l186 189q24 24 28 24t9.5 -11t5.5 -16q0 -12 -10 -19l-211 -180q-13 -13 -20 -13q-5 0 -5 5q0 4 17 21
zM305 411q0 -42 -76 -165t-76 -165q0 -55 75 -55q59 0 168 82q62 48 136 140q4 6 8 6t4 -4q0 -2 -2 -6q-68 -92 -138 -146q-51 -41 -114.5 -73.5t-119.5 -32.5q-44 0 -70.5 19.5t-26.5 57.5q0 43 38.5 114t77.5 133t39 84q0 32 -20 32q-23 0 -74 -34q-9 -6 -10 -6q-4 0 -4 4
t6 8q75 56 120 56q29 0 44 -13.5t15 -35.5z" />
    <glyph glyph-name="uni1F32" unicode="&#x1f32;" horiz-adv-x="374" 
d="M446 552q0 -5 -8 -5q-6 0 -11 14l-50 154q-10 27 -10 42q0 8 8 20t16 12q9 0 12 -15l39 -199q4 -20 4 -23zM271 568q42 42 42 109q0 23 -7 37.5t-14 22t-7 12.5q0 9 13 18t19 9q14 0 25 -23t11 -46q0 -35 -22 -75t-43.5 -63t-27.5 -23t-6 4q0 3 2.5 5.5t7.5 6.5t7 6z
M305 411q0 -42 -76 -165t-76 -165q0 -55 75 -55q59 0 168 82q62 48 136 140q4 6 8 6t4 -4q0 -2 -2 -6q-68 -92 -138 -146q-51 -41 -114.5 -73.5t-119.5 -32.5q-44 0 -70.5 19.5t-26.5 57.5q0 43 38.5 114t77.5 133t39 84q0 32 -20 32q-23 0 -74 -34q-9 -6 -10 -6q-4 0 -4 4
t6 8q75 56 120 56q29 0 44 -13.5t15 -35.5z" />
    <glyph glyph-name="upsilontonos" unicode="&#x3cd;" horiz-adv-x="622" 
d="M413 573l186 189q24 24 28 24t9.5 -11t5.5 -16q0 -12 -10 -19l-211 -180q-13 -13 -20 -13q-5 0 -5 5q0 4 17 21zM237 460q58 0 58 -64q0 -24 -18 -59.5t-39.5 -66.5t-39.5 -73.5t-18 -79.5q0 -51 29.5 -77t72.5 -26q59 0 104 29.5t69.5 79t36.5 105t12 116.5q0 26 -8 42
t-8 29q0 4 2 7t6.5 6.5t7.5 5.5t9.5 5t8.5 4q6 4 14 10t13.5 9.5t8.5 3.5q8 0 8 -9q0 -7 -1 -17.5t-1 -21.5q0 -19 17.5 -37.5t46.5 -18.5q60 0 120 42q9 6 10 6q4 0 4 -4t-6 -8q-27 -19 -69.5 -38.5t-72.5 -19.5q-13 0 -23.5 1.5t-14.5 2.5l-4 2q0 -150 -99 -258t-239 -108
q-39 0 -66.5 14.5t-40 37t-18 42.5t-5.5 38q0 61 44 136q8 13 25 40t26 41.5t17 33.5t8 31q0 38 -25 38q-14 0 -65 -34q-9 -6 -10 -6q-4 0 -4 4t6 8q75 56 111 56z" />
    <glyph glyph-name="uni1F55" unicode="&#x1f55;" horiz-adv-x="622" 
d="M462 573l186 189q24 24 28 24t9.5 -11t5.5 -16q0 -12 -10 -19l-211 -180q-13 -13 -20 -13q-5 0 -5 5q0 4 17 21zM404 568q10 -15 10 -16q0 -6 -8 -6q-4 0 -12.5 13.5t-16.5 39.5t-8 52q0 51 28.5 88t47.5 37q5 0 13.5 -7t8.5 -15q0 -2 -18.5 -18.5t-37.5 -47t-19 -66.5
q0 -33 12 -54zM237 460q58 0 58 -64q0 -24 -18 -59.5t-39.5 -66.5t-39.5 -73.5t-18 -79.5q0 -51 29.5 -77t72.5 -26q59 0 104 29.5t69.5 79t36.5 105t12 116.5q0 26 -8 42t-8 29q0 4 2 7t6.5 6.5t7.5 5.5t9.5 5t8.5 4q6 4 14 10t13.5 9.5t8.5 3.5q8 0 8 -9q0 -7 -1 -17.5
t-1 -21.5q0 -19 17.5 -37.5t46.5 -18.5q60 0 120 42q9 6 10 6q4 0 4 -4t-6 -8q-27 -19 -69.5 -38.5t-72.5 -19.5q-13 0 -23.5 1.5t-14.5 2.5l-4 2q0 -150 -99 -258t-239 -108q-39 0 -66.5 14.5t-40 37t-18 42.5t-5.5 38q0 61 44 136q8 13 25 40t26 41.5t17 33.5t8 31
q0 38 -25 38q-14 0 -65 -34q-9 -6 -10 -6q-4 0 -4 4t6 8q75 56 111 56z" />
    <glyph glyph-name="uni1F54" unicode="&#x1f54;" horiz-adv-x="622" 
d="M378 568q42 42 42 109q0 23 -7 37.5t-14 22t-7 12.5q0 9 13 18t19 9q14 0 25 -23t11 -46q0 -35 -22 -75t-43.5 -63t-27.5 -23t-6 4q0 3 2.5 5.5t7.5 6.5t7 6zM462 573l186 189q24 24 28 24t9.5 -11t5.5 -16q0 -12 -10 -19l-211 -180q-13 -13 -20 -13q-5 0 -5 5q0 4 17 21
zM237 460q58 0 58 -64q0 -24 -18 -59.5t-39.5 -66.5t-39.5 -73.5t-18 -79.5q0 -51 29.5 -77t72.5 -26q59 0 104 29.5t69.5 79t36.5 105t12 116.5q0 26 -8 42t-8 29q0 4 2 7t6.5 6.5t7.5 5.5t9.5 5t8.5 4q6 4 14 10t13.5 9.5t8.5 3.5q8 0 8 -9q0 -7 -1 -17.5t-1 -21.5
q0 -19 17.5 -37.5t46.5 -18.5q60 0 120 42q9 6 10 6q4 0 4 -4t-6 -8q-27 -19 -69.5 -38.5t-72.5 -19.5q-13 0 -23.5 1.5t-14.5 2.5l-4 2q0 -150 -99 -258t-239 -108q-39 0 -66.5 14.5t-40 37t-18 42.5t-5.5 38q0 61 44 136q8 13 25 40t26 41.5t17 33.5t8 31q0 38 -25 38
q-14 0 -65 -34q-9 -6 -10 -6q-4 0 -4 4t6 8q75 56 111 56z" />
    <glyph glyph-name="uni1F52" unicode="&#x1f52;" horiz-adv-x="622" 
d="M547 552q0 -5 -8 -5q-6 0 -11 14l-50 154q-10 27 -10 42q0 8 8 20t16 12q9 0 12 -15l39 -199q4 -20 4 -23zM372 568q42 42 42 109q0 23 -7 37.5t-14 22t-7 12.5q0 9 13 18t19 9q14 0 25 -23t11 -46q0 -35 -22 -75t-43.5 -63t-27.5 -23t-6 4q0 3 2.5 5.5t7.5 6.5t7 6z
M237 460q58 0 58 -64q0 -24 -18 -59.5t-39.5 -66.5t-39.5 -73.5t-18 -79.5q0 -51 29.5 -77t72.5 -26q59 0 104 29.5t69.5 79t36.5 105t12 116.5q0 26 -8 42t-8 29q0 4 2 7t6.5 6.5t7.5 5.5t9.5 5t8.5 4q6 4 14 10t13.5 9.5t8.5 3.5q8 0 8 -9q0 -7 -1 -17.5t-1 -21.5
q0 -19 17.5 -37.5t46.5 -18.5q60 0 120 42q9 6 10 6q4 0 4 -4t-6 -8q-27 -19 -69.5 -38.5t-72.5 -19.5q-13 0 -23.5 1.5t-14.5 2.5l-4 2q0 -150 -99 -258t-239 -108q-39 0 -66.5 14.5t-40 37t-18 42.5t-5.5 38q0 61 44 136q8 13 25 40t26 41.5t17 33.5t8 31q0 38 -25 38
q-14 0 -65 -34q-9 -6 -10 -6q-4 0 -4 4t6 8q75 56 111 56z" />
    <glyph glyph-name="uni1FD6" unicode="&#x1fd6;" horiz-adv-x="374" 
d="M343 690q27 0 48 -20t40 -39.5t41 -19.5q38 0 76 55q10 14 18 17q10 3 14 3l2 -1q0 -4 -17.5 -25t-55 -44.5t-77.5 -23.5q-24 0 -44 19t-39 38t-40 19q-12 0 -23.5 -3.5t-18.5 -6.5t-18 -12.5t-15 -13t-16.5 -17.5t-14.5 -16q-4 -4 -12 -7q-9 -4 -11 -4t-2 2q0 7 42 43
q67 57 123 57zM305 411q0 -42 -76 -165t-76 -165q0 -55 75 -55q59 0 168 82q62 48 136 140q4 6 8 6t4 -4q0 -2 -2 -6q-68 -92 -138 -146q-51 -41 -114.5 -73.5t-119.5 -32.5q-44 0 -70.5 19.5t-26.5 57.5q0 43 38.5 114t77.5 133t39 84q0 32 -20 32q-23 0 -74 -34
q-9 -6 -10 -6q-4 0 -4 4t6 8q75 56 120 56q29 0 44 -13.5t15 -35.5z" />
    <glyph glyph-name="uni1F37" unicode="&#x1f37;" horiz-adv-x="374" 
d="M389 840q27 0 48 -20t40 -39.5t41 -19.5q38 0 76 55q10 14 18 17q10 3 14 3l2 -1q0 -4 -17.5 -25t-55 -44.5t-77.5 -23.5q-24 0 -44 19t-39 38t-40 19q-12 0 -23.5 -3.5t-18.5 -6.5t-18 -12.5t-15 -13t-16.5 -17.5t-14.5 -16q-4 -4 -12 -7q-9 -4 -11 -4t-2 2q0 7 42 43
q67 57 123 57zM354 576q2 -3 6.5 -8.5t8 -9.5t3.5 -7q0 -4 -4 -4q-10 0 -26 31q-22 36 -22 74t24 62q20 20 34 20q6 0 14 -10t8 -20q0 -5 -2 -6.5t-9 -3.5t-11 -4q-37 -17 -37 -67q0 -25 13 -47zM305 411q0 -42 -76 -165t-76 -165q0 -55 75 -55q59 0 168 82q62 48 136 140
q4 6 8 6t4 -4q0 -2 -2 -6q-68 -92 -138 -146q-51 -41 -114.5 -73.5t-119.5 -32.5q-44 0 -70.5 19.5t-26.5 57.5q0 43 38.5 114t77.5 133t39 84q0 32 -20 32q-23 0 -74 -34q-9 -6 -10 -6q-4 0 -4 4t6 8q75 56 120 56q29 0 44 -13.5t15 -35.5z" />
    <glyph glyph-name="uni1F36" unicode="&#x1f36;" horiz-adv-x="374" 
d="M389 840q27 0 48 -20t40 -39.5t41 -19.5q38 0 76 55q10 14 18 17q10 3 14 3l2 -1q0 -4 -17.5 -25t-55 -44.5t-77.5 -23.5q-24 0 -44 19t-39 38t-40 19q-12 0 -23.5 -3.5t-18.5 -6.5t-18 -12.5t-15 -13t-16.5 -17.5t-14.5 -16q-4 -4 -12 -7q-9 -4 -11 -4t-2 2q0 7 42 43
q67 57 123 57zM344 571q32 29 32 70q0 32 -20 50q-3 2 -6.5 5t-5.5 4.5t-3.5 3t-1.5 3.5q0 9 11 18t17 9q9 0 20 -15q19 -23 19 -54q0 -52 -50 -96q-24 -22 -32 -22q-6 0 -6 4q0 3 4.5 6t11.5 7t10 7zM305 411q0 -42 -76 -165t-76 -165q0 -55 75 -55q59 0 168 82
q62 48 136 140q4 6 8 6t4 -4q0 -2 -2 -6q-68 -92 -138 -146q-51 -41 -114.5 -73.5t-119.5 -32.5q-44 0 -70.5 19.5t-26.5 57.5q0 43 38.5 114t77.5 133t39 84q0 32 -20 32q-23 0 -74 -34q-9 -6 -10 -6q-4 0 -4 4t6 8q75 56 120 56q29 0 44 -13.5t15 -35.5z" />
    <glyph glyph-name="Iotadieresis" unicode="&#x3aa;" horiz-adv-x="400" 
d="M556 1112q18 0 30 -11.5t12 -26.5q0 -24 -19 -42t-41 -18q-33 0 -33 44q0 19 15 36.5t36 17.5zM751 1107q34 0 34 -37q0 -24 -16 -40.5t-38 -16.5q-33 0 -33 42q0 18 16.5 35t36.5 17zM229 142q-28 -55 -63 -138q-4 -10 -17 -11.5t-36.5 -2t-42.5 -8.5q-10 -4 -17 -9
t-11 -5q-10 0 -10 6q0 3 6.5 11t16.5 19.5t13 15.5q36 47 106 177q120 220 277 521q42 81 42 102q0 18 -19 23q-3 1 -9 2t-8.5 2t-2.5 4q0 13 16 13q44 0 103.5 4.5t68.5 4.5q4 0 7 -4t3 -7q0 -4 -3.5 -4.5t-14 -4.5t-22.5 -14q-27 -22 -85 -129q-135 -249 -298 -568z" />
    <glyph glyph-name="uni1FE6" unicode="&#x1fe6;" horiz-adv-x="622" 
d="M444 690q27 0 48 -20t40 -39.5t41 -19.5q38 0 76 55q10 14 18 17q10 3 14 3l2 -1q0 -4 -17.5 -25t-55 -44.5t-77.5 -23.5q-24 0 -44 19t-38.5 38t-40.5 19q-12 0 -23.5 -3.5t-18.5 -6.5t-18 -12.5t-15 -13t-16.5 -17.5t-14.5 -16q-4 -4 -12 -7q-9 -4 -11 -4t-2 2
q0 7 42 43q67 57 123 57zM237 460q58 0 58 -64q0 -24 -18 -59.5t-39.5 -66.5t-39.5 -73.5t-18 -79.5q0 -51 29.5 -77t72.5 -26q59 0 104 29.5t69.5 79t36.5 105t12 116.5q0 26 -8 42t-8 29q0 4 2 7t6.5 6.5t7.5 5.5t9.5 5t8.5 4q6 4 14 10t13.5 9.5t8.5 3.5q8 0 8 -9
q0 -7 -1 -17.5t-1 -21.5q0 -19 17.5 -37.5t46.5 -18.5q60 0 120 42q9 6 10 6q4 0 4 -4t-6 -8q-27 -19 -69.5 -38.5t-72.5 -19.5q-13 0 -23.5 1.5t-14.5 2.5l-4 2q0 -150 -99 -258t-239 -108q-39 0 -66.5 14.5t-40 37t-18 42.5t-5.5 38q0 61 44 136q8 13 25 40t26 41.5
t17 33.5t8 31q0 38 -25 38q-14 0 -65 -34q-9 -6 -10 -6q-4 0 -4 4t6 8q75 56 111 56z" />
    <glyph glyph-name="uni1F57" unicode="&#x1f57;" horiz-adv-x="622" 
d="M490 840q27 0 48 -20t40 -39.5t41 -19.5q38 0 76 55q10 14 18 17q10 3 14 3l2 -1q0 -4 -17.5 -25t-55 -44.5t-77.5 -23.5q-24 0 -44 19t-38.5 38t-40.5 19q-12 0 -23.5 -3.5t-18.5 -6.5t-18 -12.5t-15 -13t-16.5 -17.5t-14.5 -16q-4 -4 -12 -7q-9 -4 -11 -4t-2 2
q0 7 42 43q67 57 123 57zM455 576q2 -3 6.5 -8.5t8 -9.5t3.5 -7q0 -4 -4 -4q-10 0 -26 31q-22 36 -22 74t24 62q20 20 34 20q6 0 14 -10t8 -20q0 -5 -2 -6.5t-9 -3.5t-11 -4q-37 -17 -37 -67q0 -25 13 -47zM237 460q58 0 58 -64q0 -24 -18 -59.5t-39.5 -66.5t-39.5 -73.5
t-18 -79.5q0 -51 29.5 -77t72.5 -26q59 0 104 29.5t69.5 79t36.5 105t12 116.5q0 26 -8 42t-8 29q0 4 2 7t6.5 6.5t7.5 5.5t9.5 5t8.5 4q6 4 14 10t13.5 9.5t8.5 3.5q8 0 8 -9q0 -7 -1 -17.5t-1 -21.5q0 -19 17.5 -37.5t46.5 -18.5q60 0 120 42q9 6 10 6q4 0 4 -4t-6 -8
q-27 -19 -69.5 -38.5t-72.5 -19.5q-13 0 -23.5 1.5t-14.5 2.5l-4 2q0 -150 -99 -258t-239 -108q-39 0 -66.5 14.5t-40 37t-18 42.5t-5.5 38q0 61 44 136q8 13 25 40t26 41.5t17 33.5t8 31q0 38 -25 38q-14 0 -65 -34q-9 -6 -10 -6q-4 0 -4 4t6 8q75 56 111 56z" />
    <glyph glyph-name="uni1F56" unicode="&#x1f56;" horiz-adv-x="622" 
d="M490 840q27 0 48 -20t40 -39.5t41 -19.5q38 0 76 55q10 14 18 17q10 3 14 3l2 -1q0 -4 -17.5 -25t-55 -44.5t-77.5 -23.5q-24 0 -44 19t-38.5 38t-40.5 19q-12 0 -23.5 -3.5t-18.5 -6.5t-18 -12.5t-15 -13t-16.5 -17.5t-14.5 -16q-4 -4 -12 -7q-9 -4 -11 -4t-2 2
q0 7 42 43q67 57 123 57zM445 571q32 29 32 70q0 32 -20 50q-3 2 -6.5 5t-5.5 4.5t-3.5 3t-1.5 3.5q0 9 11 18t17 9q9 0 20 -15q19 -23 19 -54q0 -52 -50 -96q-24 -22 -32 -22q-6 0 -6 4q0 3 4.5 6t11.5 7t10 7zM237 460q58 0 58 -64q0 -24 -18 -59.5t-39.5 -66.5
t-39.5 -73.5t-18 -79.5q0 -51 29.5 -77t72.5 -26q59 0 104 29.5t69.5 79t36.5 105t12 116.5q0 26 -8 42t-8 29q0 4 2 7t6.5 6.5t7.5 5.5t9.5 5t8.5 4q6 4 14 10t13.5 9.5t8.5 3.5q8 0 8 -9q0 -7 -1 -17.5t-1 -21.5q0 -19 17.5 -37.5t46.5 -18.5q60 0 120 42q9 6 10 6
q4 0 4 -4t-6 -8q-27 -19 -69.5 -38.5t-72.5 -19.5q-13 0 -23.5 1.5t-14.5 2.5l-4 2q0 -150 -99 -258t-239 -108q-39 0 -66.5 14.5t-40 37t-18 42.5t-5.5 38q0 61 44 136q8 13 25 40t26 41.5t17 33.5t8 31q0 38 -25 38q-14 0 -65 -34q-9 -6 -10 -6q-4 0 -4 4t6 8
q75 56 111 56z" />
    <glyph glyph-name="Upsilondieresis" unicode="&#x3ab;" horiz-adv-x="715" 
d="M685 1112q18 0 30 -11.5t12 -26.5q0 -24 -19 -42t-41 -18q-33 0 -33 44q0 19 15 36.5t36 17.5zM880 1107q34 0 34 -37q0 -24 -16 -40.5t-38 -16.5q-33 0 -33 42q0 18 16.5 35t36.5 17zM499 432q-39 -54 -131 -234.5t-97 -187.5q-7 -10 -19.5 -12.5t-37 -5.5t-45.5 -10
q-12 -4 -19.5 -9t-11.5 -5q-12 0 -12 6q0 2 8 11.5t21 25.5t22 29q166 250 238 413q44 99 44 211q0 70 -48.5 125t-114.5 55q-28 0 -69.5 -15.5t-72.5 -46.5q-20 -20 -22 -20q-6 0 -6 6t22 28q46 47 97 68.5t93 21.5q96 0 150 -59t54 -142q0 -78 -25 -164h1
q137 135 227.5 203t232.5 133q70 32 133 32q27 0 50 -12t23 -23q0 -4 -3 -4l-3 2q-4 2 -10 2q-34 0 -118 -20q-164 -39 -296.5 -135.5t-254.5 -266.5z" />
    <glyph glyph-name="uni1F72" unicode="&#x1f72;" horiz-adv-x="432" 
d="M409 551q0 -5 -8 -5q-6 0 -11 14l-50 154q-10 27 -10 42q0 8 8 20t16 12q9 0 12 -15l39 -199q4 -20 4 -23zM464 108q62 48 136 140q4 6 8 6t4 -4q0 -2 -2 -6q-68 -92 -138 -146q-151 -118 -290 -118q-69 0 -112.5 28.5t-43.5 89.5q0 76 150 158q-10 9 -19 28.5t-9 30.5
q0 53 60 94.5t130 41.5q33 0 56.5 -17.5t23.5 -29.5q0 -10 -20 -24l-20 -13l-8 -8q-1 0 -2 3.5t-2.5 9.5t-3.5 9q-27 42 -72 42q-90 0 -90 -76q0 -24 17.5 -48t30.5 -24q5 0 17 1t17 1q16 0 16 -8q0 -10 -16 -18q-3 -1 -20.5 -10.5t-29.5 -9.5q-4 0 -15 1t-15 1
q-21 0 -60.5 -37.5t-39.5 -75.5q0 -51 33.5 -80.5t90.5 -29.5q108 0 238 98z" />
    <glyph glyph-name="uni1F11" unicode="&#x1f11;" horiz-adv-x="432" 
d="M392 568q10 -15 10 -16q0 -6 -8 -6q-4 0 -12.5 13.5t-16.5 39.5t-8 52q0 51 28.5 88t47.5 37q5 0 13.5 -7t8.5 -15q0 -2 -18.5 -18.5t-37.5 -47t-19 -66.5q0 -33 12 -54zM464 108q62 48 136 140q4 6 8 6t4 -4q0 -2 -2 -6q-68 -92 -138 -146q-151 -118 -290 -118
q-69 0 -112.5 28.5t-43.5 89.5q0 76 150 158q-10 9 -19 28.5t-9 30.5q0 53 60 94.5t130 41.5q33 0 56.5 -17.5t23.5 -29.5q0 -10 -20 -24l-20 -13l-8 -8q-1 0 -2 3.5t-2.5 9.5t-3.5 9q-27 42 -72 42q-90 0 -90 -76q0 -24 17.5 -48t30.5 -24q5 0 17 1t17 1q16 0 16 -8
q0 -10 -16 -18q-3 -1 -20.5 -10.5t-29.5 -9.5q-4 0 -15 1t-15 1q-21 0 -60.5 -37.5t-39.5 -75.5q0 -51 33.5 -80.5t90.5 -29.5q108 0 238 98z" />
    <glyph glyph-name="uni1F10" unicode="&#x1f10;" horiz-adv-x="432" 
d="M372 568q42 42 42 109q0 23 -7 37.5t-14 22t-7 12.5q0 9 13 18t19 9q14 0 25 -23t11 -46q0 -35 -22 -75t-43.5 -63t-27.5 -23t-6 4q0 3 2.5 5.5t7.5 6.5t7 6zM464 108q62 48 136 140q4 6 8 6t4 -4q0 -2 -2 -6q-68 -92 -138 -146q-151 -118 -290 -118q-69 0 -112.5 28.5
t-43.5 89.5q0 76 150 158q-10 9 -19 28.5t-9 30.5q0 53 60 94.5t130 41.5q33 0 56.5 -17.5t23.5 -29.5q0 -10 -20 -24l-20 -13l-8 -8q-1 0 -2 3.5t-2.5 9.5t-3.5 9q-27 42 -72 42q-90 0 -90 -76q0 -24 17.5 -48t30.5 -24q5 0 17 1t17 1q16 0 16 -8q0 -10 -16 -18
q-3 -1 -20.5 -10.5t-29.5 -9.5q-4 0 -15 1t-15 1q-21 0 -60.5 -37.5t-39.5 -75.5q0 -51 33.5 -80.5t90.5 -29.5q108 0 238 98z" />
    <glyph glyph-name="uni1F13" unicode="&#x1f13;" horiz-adv-x="432" 
d="M493 552q0 -5 -8 -5q-6 0 -11 14l-50 154q-10 27 -10 42q0 8 8 20t16 12q9 0 12 -15l39 -199q4 -20 4 -23zM322 568q10 -15 10 -16q0 -6 -8 -6q-4 0 -12.5 13.5t-16.5 39.5t-8 52q0 51 28.5 88t47.5 37q5 0 13.5 -7t8.5 -15q0 -2 -18.5 -18.5t-37.5 -47t-19 -66.5
q0 -33 12 -54zM464 108q62 48 136 140q4 6 8 6t4 -4q0 -2 -2 -6q-68 -92 -138 -146q-151 -118 -290 -118q-69 0 -112.5 28.5t-43.5 89.5q0 76 150 158q-10 9 -19 28.5t-9 30.5q0 53 60 94.5t130 41.5q33 0 56.5 -17.5t23.5 -29.5q0 -10 -20 -24l-20 -13l-8 -8q-1 0 -2 3.5
t-2.5 9.5t-3.5 9q-27 42 -72 42q-90 0 -90 -76q0 -24 17.5 -48t30.5 -24q5 0 17 1t17 1q16 0 16 -8q0 -10 -16 -18q-3 -1 -20.5 -10.5t-29.5 -9.5q-4 0 -15 1t-15 1q-21 0 -60.5 -37.5t-39.5 -75.5q0 -51 33.5 -80.5t90.5 -29.5q108 0 238 98z" />
    <glyph glyph-name="uni1F78" unicode="&#x1f78;" horiz-adv-x="560" 
d="M500 551q0 -5 -8 -5q-6 0 -11 14l-50 154q-10 27 -10 42q0 8 8 20t16 12q9 0 12 -15l39 -199q4 -20 4 -23zM414 451q57 0 90.5 -36t33.5 -96q0 -66 -32.5 -129t-82.5 -107.5t-111.5 -71.5t-117.5 -27t-92 36.5t-36 92.5q0 82 55.5 162t136.5 128t156 48zM385 429
q-53 0 -108 -48t-90.5 -119.5t-35.5 -137.5q0 -49 21 -81.5t53 -32.5q81 0 156.5 102.5t75.5 205.5q0 49 -19.5 80t-52.5 31z" />
    <glyph glyph-name="uni1F41" unicode="&#x1f41;" horiz-adv-x="560" 
d="M483 568q10 -15 10 -16q0 -6 -8 -6q-4 0 -12.5 13.5t-16.5 39.5t-8 52q0 51 28.5 88t47.5 37q5 0 13.5 -7t8.5 -15q0 -3 -11.5 -14t-26 -25t-26 -39.5t-11.5 -53.5q0 -33 12 -54zM414 451q57 0 90.5 -36t33.5 -96q0 -66 -32.5 -129t-82.5 -107.5t-111.5 -71.5t-117.5 -27
t-92 36.5t-36 92.5q0 82 55.5 162t136.5 128t156 48zM385 429q-53 0 -108 -48t-90.5 -119.5t-35.5 -137.5q0 -49 21 -81.5t53 -32.5q81 0 156.5 102.5t75.5 205.5q0 49 -19.5 80t-52.5 31z" />
    <glyph glyph-name="uni1F40" unicode="&#x1f40;" horiz-adv-x="560" 
d="M463 568q42 42 42 109q0 23 -7 37.5t-14 22t-7 12.5q0 9 13 18t19 9q14 0 25 -23t11 -46q0 -35 -22 -75t-43.5 -63t-27.5 -23t-6 4q0 3 2.5 5.5t7.5 6.5t7 6zM414 451q57 0 90.5 -36t33.5 -96q0 -66 -32.5 -129t-82.5 -107.5t-111.5 -71.5t-117.5 -27t-92 36.5t-36 92.5
q0 82 55.5 162t136.5 128t156 48zM385 429q-53 0 -108 -48t-90.5 -119.5t-35.5 -137.5q0 -49 21 -81.5t53 -32.5q81 0 156.5 102.5t75.5 205.5q0 49 -19.5 80t-52.5 31z" />
    <glyph glyph-name="uni1F43" unicode="&#x1f43;" horiz-adv-x="560" 
d="M584 552q0 -5 -8 -5q-6 0 -11 14l-50 154q-10 27 -10 42q0 8 8 20t16 12q9 0 12 -15l39 -199q4 -20 4 -23zM413 568q10 -15 10 -16q0 -6 -8 -6q-4 0 -12.5 13.5t-16.5 39.5t-8 52q0 51 28.5 88t47.5 37q5 0 13.5 -7t8.5 -15q0 -3 -11.5 -14t-26 -25t-26 -39.5
t-11.5 -53.5q0 -33 12 -54zM414 451q57 0 90.5 -36t33.5 -96q0 -66 -32.5 -129t-82.5 -107.5t-111.5 -71.5t-117.5 -27t-92 36.5t-36 92.5q0 82 55.5 162t136.5 128t156 48zM385 429q-53 0 -108 -48t-90.5 -119.5t-35.5 -137.5q0 -49 21 -81.5t53 -32.5q81 0 156.5 102.5
t75.5 205.5q0 49 -19.5 80t-52.5 31z" />
    <glyph glyph-name="epsilontonos" unicode="&#x3ad;" horiz-adv-x="432" 
d="M349 573l186 189q24 24 28 24t9.5 -11t5.5 -16q0 -12 -10 -19l-211 -180q-13 -13 -20 -13q-5 0 -5 5q0 4 17 21zM464 108q62 48 136 140q4 6 8 6t4 -4q0 -2 -2 -6q-68 -92 -138 -146q-151 -118 -290 -118q-69 0 -112.5 28.5t-43.5 89.5q0 76 150 158q-10 9 -19 28.5
t-9 30.5q0 53 60 94.5t130 41.5q33 0 56.5 -17.5t23.5 -29.5q0 -10 -20 -24l-20 -13l-8 -8q-1 0 -2 3.5t-2.5 9.5t-3.5 9q-27 42 -72 42q-90 0 -90 -76q0 -24 17.5 -48t30.5 -24q5 0 17 1t17 1q16 0 16 -8q0 -10 -16 -18q-3 -1 -20.5 -10.5t-29.5 -9.5q-4 0 -15 1t-15 1
q-21 0 -60.5 -37.5t-39.5 -75.5q0 -51 33.5 -80.5t90.5 -29.5q108 0 238 98z" />
    <glyph glyph-name="uni1F15" unicode="&#x1f15;" horiz-adv-x="432" 
d="M398 573l186 189q24 24 28 24t9.5 -11t5.5 -16q0 -12 -10 -19l-211 -180q-13 -13 -20 -13q-5 0 -5 5q0 4 17 21zM340 568q10 -15 10 -16q0 -6 -8 -6q-4 0 -12.5 13.5t-16.5 39.5t-8 52q0 51 28.5 88t47.5 37q5 0 13.5 -7t8.5 -15q0 -2 -18.5 -18.5t-37.5 -47t-19 -66.5
q0 -33 12 -54zM464 108q62 48 136 140q4 6 8 6t4 -4q0 -2 -2 -6q-68 -92 -138 -146q-151 -118 -290 -118q-69 0 -112.5 28.5t-43.5 89.5q0 76 150 158q-10 9 -19 28.5t-9 30.5q0 53 60 94.5t130 41.5q33 0 56.5 -17.5t23.5 -29.5q0 -10 -20 -24l-20 -13l-8 -8q-1 0 -2 3.5
t-2.5 9.5t-3.5 9q-27 42 -72 42q-90 0 -90 -76q0 -24 17.5 -48t30.5 -24q5 0 17 1t17 1q16 0 16 -8q0 -10 -16 -18q-3 -1 -20.5 -10.5t-29.5 -9.5q-4 0 -15 1t-15 1q-21 0 -60.5 -37.5t-39.5 -75.5q0 -51 33.5 -80.5t90.5 -29.5q108 0 238 98z" />
    <glyph glyph-name="uni1F14" unicode="&#x1f14;" horiz-adv-x="432" 
d="M314 568q42 42 42 109q0 23 -7 37.5t-14 22t-7 12.5q0 9 13 18t19 9q14 0 25 -23t11 -46q0 -35 -22 -75t-43.5 -63t-27.5 -23t-6 4q0 3 2.5 5.5t7.5 6.5t7 6zM398 573l186 189q24 24 28 24t9.5 -11t5.5 -16q0 -12 -10 -19l-211 -180q-13 -13 -20 -13q-5 0 -5 5q0 4 17 21
zM464 108q62 48 136 140q4 6 8 6t4 -4q0 -2 -2 -6q-68 -92 -138 -146q-151 -118 -290 -118q-69 0 -112.5 28.5t-43.5 89.5q0 76 150 158q-10 9 -19 28.5t-9 30.5q0 53 60 94.5t130 41.5q33 0 56.5 -17.5t23.5 -29.5q0 -10 -20 -24l-20 -13l-8 -8q-1 0 -2 3.5t-2.5 9.5
t-3.5 9q-27 42 -72 42q-90 0 -90 -76q0 -24 17.5 -48t30.5 -24q5 0 17 1t17 1q16 0 16 -8q0 -10 -16 -18q-3 -1 -20.5 -10.5t-29.5 -9.5q-4 0 -15 1t-15 1q-21 0 -60.5 -37.5t-39.5 -75.5q0 -51 33.5 -80.5t90.5 -29.5q108 0 238 98z" />
    <glyph glyph-name="uni1F12" unicode="&#x1f12;" horiz-adv-x="432" 
d="M483 552q0 -5 -8 -5q-6 0 -11 14l-50 154q-10 27 -10 42q0 8 8 20t16 12q9 0 12 -15l39 -199q4 -20 4 -23zM308 568q42 42 42 109q0 23 -7 37.5t-14 22t-7 12.5q0 9 13 18t19 9q14 0 25 -23t11 -46q0 -35 -22 -75t-43.5 -63t-27.5 -23t-6 4q0 3 2.5 5.5t7.5 6.5t7 6z
M464 108q62 48 136 140q4 6 8 6t4 -4q0 -2 -2 -6q-68 -92 -138 -146q-151 -118 -290 -118q-69 0 -112.5 28.5t-43.5 89.5q0 76 150 158q-10 9 -19 28.5t-9 30.5q0 53 60 94.5t130 41.5q33 0 56.5 -17.5t23.5 -29.5q0 -10 -20 -24l-20 -13l-8 -8q-1 0 -2 3.5t-2.5 9.5t-3.5 9
q-27 42 -72 42q-90 0 -90 -76q0 -24 17.5 -48t30.5 -24q5 0 17 1t17 1q16 0 16 -8q0 -10 -16 -18q-3 -1 -20.5 -10.5t-29.5 -9.5q-4 0 -15 1t-15 1q-21 0 -60.5 -37.5t-39.5 -75.5q0 -51 33.5 -80.5t90.5 -29.5q108 0 238 98z" />
    <glyph glyph-name="omicrontonos" unicode="&#x3cc;" horiz-adv-x="560" 
d="M440 573l186 189q24 24 28 24t9.5 -11t5.5 -16q0 -12 -10 -19l-211 -180q-13 -13 -20 -13q-5 0 -5 5q0 4 17 21zM414 451q57 0 90.5 -36t33.5 -96q0 -66 -32.5 -129t-82.5 -107.5t-111.5 -71.5t-117.5 -27t-92 36.5t-36 92.5q0 82 55.5 162t136.5 128t156 48zM385 429
q-53 0 -108 -48t-90.5 -119.5t-35.5 -137.5q0 -49 21 -81.5t53 -32.5q81 0 156.5 102.5t75.5 205.5q0 49 -19.5 80t-52.5 31z" />
    <glyph glyph-name="uni1F45" unicode="&#x1f45;" horiz-adv-x="560" 
d="M489 573l186 189q24 24 28 24t9.5 -11t5.5 -16q0 -12 -10 -19l-211 -180q-13 -13 -20 -13q-5 0 -5 5q0 4 17 21zM431 568q10 -15 10 -16q0 -6 -8 -6q-4 0 -12.5 13.5t-16.5 39.5t-8 52q0 51 28.5 88t47.5 37q5 0 13.5 -7t8.5 -15q0 -3 -11.5 -14t-26 -25t-26 -39.5
t-11.5 -53.5q0 -33 12 -54zM414 451q57 0 90.5 -36t33.5 -96q0 -66 -32.5 -129t-82.5 -107.5t-111.5 -71.5t-117.5 -27t-92 36.5t-36 92.5q0 82 55.5 162t136.5 128t156 48zM385 429q-53 0 -108 -48t-90.5 -119.5t-35.5 -137.5q0 -49 21 -81.5t53 -32.5q81 0 156.5 102.5
t75.5 205.5q0 49 -19.5 80t-52.5 31z" />
    <glyph glyph-name="uni1F44" unicode="&#x1f44;" horiz-adv-x="560" 
d="M405 568q42 42 42 109q0 23 -7 37.5t-14 22t-7 12.5q0 9 13 18t19 9q14 0 25 -23t11 -46q0 -35 -22 -75t-43.5 -63t-27.5 -23t-6 4q0 3 2.5 5.5t7.5 6.5t7 6zM489 573l186 189q24 24 28 24t9.5 -11t5.5 -16q0 -12 -10 -19l-211 -180q-13 -13 -20 -13q-5 0 -5 5q0 4 17 21
zM414 451q57 0 90.5 -36t33.5 -96q0 -66 -32.5 -129t-82.5 -107.5t-111.5 -71.5t-117.5 -27t-92 36.5t-36 92.5q0 82 55.5 162t136.5 128t156 48zM385 429q-53 0 -108 -48t-90.5 -119.5t-35.5 -137.5q0 -49 21 -81.5t53 -32.5q81 0 156.5 102.5t75.5 205.5q0 49 -19.5 80
t-52.5 31z" />
    <glyph glyph-name="uni1F42" unicode="&#x1f42;" horiz-adv-x="560" 
d="M574 552q0 -5 -8 -5q-6 0 -11 14l-50 154q-10 27 -10 42q0 8 8 20t16 12q9 0 12 -15l39 -199q4 -20 4 -23zM399 568q42 42 42 109q0 23 -7 37.5t-14 22t-7 12.5q0 9 13 18t19 9q14 0 25 -23t11 -46q0 -35 -22 -75t-43.5 -63t-27.5 -23t-6 4q0 3 2.5 5.5t7.5 6.5t7 6z
M414 451q57 0 90.5 -36t33.5 -96q0 -66 -32.5 -129t-82.5 -107.5t-111.5 -71.5t-117.5 -27t-92 36.5t-36 92.5q0 82 55.5 162t136.5 128t156 48zM385 429q-53 0 -108 -48t-90.5 -119.5t-35.5 -137.5q0 -49 21 -81.5t53 -32.5q81 0 156.5 102.5t75.5 205.5q0 49 -19.5 80
t-52.5 31z" />
    <glyph glyph-name="iotadieresis" unicode="&#x3ca;" horiz-adv-x="374" 
d="M283 692q18 0 30 -11.5t12 -26.5q0 -24 -19 -42t-41 -18q-33 0 -33 44q0 19 15 36.5t36 17.5zM478 687q34 0 34 -37q0 -24 -16 -40.5t-38 -16.5q-33 0 -33 42q0 18 16.5 35t36.5 17zM305 411q0 -42 -76 -165t-76 -165q0 -55 75 -55q59 0 168 82q62 48 136 140q4 6 8 6
t4 -4q0 -2 -2 -6q-68 -92 -138 -146q-51 -41 -114.5 -73.5t-119.5 -32.5q-44 0 -70.5 19.5t-26.5 57.5q0 43 38.5 114t77.5 133t39 84q0 32 -20 32q-23 0 -74 -34q-9 -6 -10 -6q-4 0 -4 4t6 8q75 56 120 56q29 0 44 -13.5t15 -35.5z" />
    <glyph glyph-name="uni1FD2" unicode="&#x1fd2;" horiz-adv-x="374" 
d="M283 683q18 0 30 -11.5t12 -26.5q0 -24 -19 -42t-41 -18q-33 0 -33 44q0 19 15 36.5t36 17.5zM478 678q34 0 34 -37q0 -24 -16 -40.5t-38 -16.5q-33 0 -33 42q0 18 16.5 35t36.5 17zM412 748q0 -5 -8 -5q-6 0 -11 14l-50 154q-10 27 -10 42q0 8 8 20t16 12q9 0 12 -15
l39 -199q4 -20 4 -23zM305 411q0 -42 -76 -165t-76 -165q0 -55 75 -55q59 0 168 82q62 48 136 140q4 6 8 6t4 -4q0 -2 -2 -6q-68 -92 -138 -146q-51 -41 -114.5 -73.5t-119.5 -32.5q-44 0 -70.5 19.5t-26.5 57.5q0 43 38.5 114t77.5 133t39 84q0 32 -20 32q-23 0 -74 -34
q-9 -6 -10 -6q-4 0 -4 4t6 8q75 56 120 56q29 0 44 -13.5t15 -35.5z" />
    <glyph glyph-name="iotadieresistonos" unicode="&#x390;" horiz-adv-x="374" 
d="M380 785l186 189q24 24 28 24t9.5 -11t5.5 -16q0 -12 -10 -19l-211 -180q-13 -13 -20 -13q-5 0 -5 5q0 4 17 21zM283 692q18 0 30 -11.5t12 -26.5q0 -24 -19 -42t-41 -18q-33 0 -33 44q0 19 15 36.5t36 17.5zM478 687q34 0 34 -37q0 -24 -16 -40.5t-38 -16.5
q-33 0 -33 42q0 18 16.5 35t36.5 17zM305 411q0 -42 -76 -165t-76 -165q0 -55 75 -55q59 0 168 82q62 48 136 140q4 6 8 6t4 -4q0 -2 -2 -6q-68 -92 -138 -146q-51 -41 -114.5 -73.5t-119.5 -32.5q-44 0 -70.5 19.5t-26.5 57.5q0 43 38.5 114t77.5 133t39 84q0 32 -20 32
q-23 0 -74 -34q-9 -6 -10 -6q-4 0 -4 4t6 8q75 56 120 56q29 0 44 -13.5t15 -35.5z" />
    <glyph glyph-name="uni1FD7" unicode="&#x1fd7;" horiz-adv-x="374" 
d="M283 692q18 0 30 -11.5t12 -26.5q0 -24 -19 -42t-41 -18q-33 0 -33 44q0 19 15 36.5t36 17.5zM478 687q34 0 34 -37q0 -24 -16 -40.5t-38 -16.5q-33 0 -33 42q0 18 16.5 35t36.5 17zM416 870q27 0 48 -20t40 -39.5t41 -19.5q38 0 76 55q10 14 18 17q10 3 14 3l2 -1
q0 -4 -17.5 -25t-55 -44.5t-77.5 -23.5q-24 0 -44 19t-39 38t-40 19q-12 0 -23.5 -3.5t-18.5 -6.5t-18 -12.5t-15 -13t-16.5 -17.5t-14.5 -16q-4 -4 -12 -7q-9 -4 -11 -4t-2 2q0 7 42 43q67 57 123 57zM305 411q0 -42 -76 -165t-76 -165q0 -55 75 -55q59 0 168 82
q62 48 136 140q4 6 8 6t4 -4q0 -2 -2 -6q-68 -92 -138 -146q-51 -41 -114.5 -73.5t-119.5 -32.5q-44 0 -70.5 19.5t-26.5 57.5q0 43 38.5 114t77.5 133t39 84q0 32 -20 32q-23 0 -74 -34q-9 -6 -10 -6q-4 0 -4 4t6 8q75 56 120 56q29 0 44 -13.5t15 -35.5z" />
    <glyph glyph-name="upsilondieresis" unicode="&#x3cb;" horiz-adv-x="622" 
d="M384 692q18 0 30 -11.5t12 -26.5q0 -24 -19 -42t-41 -18q-33 0 -33 44q0 19 15 36.5t36 17.5zM579 687q34 0 34 -37q0 -24 -16 -40.5t-38 -16.5q-33 0 -33 42q0 18 16.5 35t36.5 17zM237 460q58 0 58 -64q0 -24 -18 -59.5t-39.5 -66.5t-39.5 -73.5t-18 -79.5
q0 -51 29.5 -77t72.5 -26q59 0 104 29.5t69.5 79t36.5 105t12 116.5q0 26 -8 42t-8 29q0 4 2 7t6.5 6.5t7.5 5.5t9.5 5t8.5 4q6 4 14 10t13.5 9.5t8.5 3.5q8 0 8 -9q0 -7 -1 -17.5t-1 -21.5q0 -19 17.5 -37.5t46.5 -18.5q60 0 120 42q9 6 10 6q4 0 4 -4t-6 -8
q-27 -19 -69.5 -38.5t-72.5 -19.5q-13 0 -23.5 1.5t-14.5 2.5l-4 2q0 -150 -99 -258t-239 -108q-39 0 -66.5 14.5t-40 37t-18 42.5t-5.5 38q0 61 44 136q8 13 25 40t26 41.5t17 33.5t8 31q0 38 -25 38q-14 0 -65 -34q-9 -6 -10 -6q-4 0 -4 4t6 8q75 56 111 56z" />
    <glyph glyph-name="uni1FE2" unicode="&#x1fe2;" horiz-adv-x="622" 
d="M384 683q18 0 30 -11.5t12 -26.5q0 -24 -19 -42t-41 -18q-33 0 -33 44q0 19 15 36.5t36 17.5zM579 678q34 0 34 -37q0 -24 -16 -40.5t-38 -16.5q-33 0 -33 42q0 18 16.5 35t36.5 17zM513 748q0 -5 -8 -5q-6 0 -11 14l-50 154q-10 27 -10 42q0 8 8 20t16 12q9 0 12 -15
l39 -199q4 -20 4 -23zM237 460q58 0 58 -64q0 -24 -18 -59.5t-39.5 -66.5t-39.5 -73.5t-18 -79.5q0 -51 29.5 -77t72.5 -26q59 0 104 29.5t69.5 79t36.5 105t12 116.5q0 26 -8 42t-8 29q0 4 2 7t6.5 6.5t7.5 5.5t9.5 5t8.5 4q6 4 14 10t13.5 9.5t8.5 3.5q8 0 8 -9
q0 -7 -1 -17.5t-1 -21.5q0 -19 17.5 -37.5t46.5 -18.5q60 0 120 42q9 6 10 6q4 0 4 -4t-6 -8q-27 -19 -69.5 -38.5t-72.5 -19.5q-13 0 -23.5 1.5t-14.5 2.5l-4 2q0 -150 -99 -258t-239 -108q-39 0 -66.5 14.5t-40 37t-18 42.5t-5.5 38q0 61 44 136q8 13 25 40t26 41.5
t17 33.5t8 31q0 38 -25 38q-14 0 -65 -34q-9 -6 -10 -6q-4 0 -4 4t6 8q75 56 111 56z" />
    <glyph glyph-name="upsilondieresistonos" unicode="&#x3b0;" horiz-adv-x="622" 
d="M481 785l186 189q24 24 28 24t9.5 -11t5.5 -16q0 -12 -10 -19l-211 -180q-13 -13 -20 -13q-5 0 -5 5q0 4 17 21zM384 692q18 0 30 -11.5t12 -26.5q0 -24 -19 -42t-41 -18q-33 0 -33 44q0 19 15 36.5t36 17.5zM579 687q34 0 34 -37q0 -24 -16 -40.5t-38 -16.5
q-33 0 -33 42q0 18 16.5 35t36.5 17zM237 460q58 0 58 -64q0 -24 -18 -59.5t-39.5 -66.5t-39.5 -73.5t-18 -79.5q0 -51 29.5 -77t72.5 -26q59 0 104 29.5t69.5 79t36.5 105t12 116.5q0 26 -8 42t-8 29q0 4 2 7t6.5 6.5t7.5 5.5t9.5 5t8.5 4q6 4 14 10t13.5 9.5t8.5 3.5
q8 0 8 -9q0 -7 -1 -17.5t-1 -21.5q0 -19 17.5 -37.5t46.5 -18.5q60 0 120 42q9 6 10 6q4 0 4 -4t-6 -8q-27 -19 -69.5 -38.5t-72.5 -19.5q-13 0 -23.5 1.5t-14.5 2.5l-4 2q0 -150 -99 -258t-239 -108q-39 0 -66.5 14.5t-40 37t-18 42.5t-5.5 38q0 61 44 136q8 13 25 40
t26 41.5t17 33.5t8 31q0 38 -25 38q-14 0 -65 -34q-9 -6 -10 -6q-4 0 -4 4t6 8q75 56 111 56z" />
    <glyph glyph-name="uni1FE7" unicode="&#x1fe7;" horiz-adv-x="622" 
d="M384 692q18 0 30 -11.5t12 -26.5q0 -24 -19 -42t-41 -18q-33 0 -33 44q0 19 15 36.5t36 17.5zM579 687q34 0 34 -37q0 -24 -16 -40.5t-38 -16.5q-33 0 -33 42q0 18 16.5 35t36.5 17zM517 870q27 0 48 -20t40 -39.5t41 -19.5q38 0 76 55q10 14 18 17q10 3 14 3l2 -1
q0 -4 -17.5 -25t-55 -44.5t-77.5 -23.5q-24 0 -44 19t-39 38t-40 19q-12 0 -23.5 -3.5t-18.5 -6.5t-18 -12.5t-15 -13t-16.5 -17.5t-14.5 -16q-4 -4 -12 -7q-9 -4 -11 -4t-2 2q0 7 42 43q67 57 123 57zM237 460q58 0 58 -64q0 -24 -18 -59.5t-39.5 -66.5t-39.5 -73.5
t-18 -79.5q0 -51 29.5 -77t72.5 -26q59 0 104 29.5t69.5 79t36.5 105t12 116.5q0 26 -8 42t-8 29q0 4 2 7t6.5 6.5t7.5 5.5t9.5 5t8.5 4q6 4 14 10t13.5 9.5t8.5 3.5q8 0 8 -9q0 -7 -1 -17.5t-1 -21.5q0 -19 17.5 -37.5t46.5 -18.5q60 0 120 42q9 6 10 6q4 0 4 -4t-6 -8
q-27 -19 -69.5 -38.5t-72.5 -19.5q-13 0 -23.5 1.5t-14.5 2.5l-4 2q0 -150 -99 -258t-239 -108q-39 0 -66.5 14.5t-40 37t-18 42.5t-5.5 38q0 61 44 136q8 13 25 40t26 41.5t17 33.5t8 31q0 38 -25 38q-14 0 -65 -34q-9 -6 -10 -6q-4 0 -4 4t6 8q75 56 111 56z" />
    <glyph glyph-name="uni1FB3" unicode="&#x1fb3;" horiz-adv-x="658" 
d="M182 -100q6 0 6 -6q0 -4 -15.5 -16.5t-31 -35t-15.5 -48.5q0 -24 18.5 -41t45.5 -17q12 0 29 4l17 5q2 0 2 -3q0 -2 -16 -8t-37.5 -11t-34.5 -5q-86 0 -86 58q0 33 29 64t56 45.5t33 14.5zM380 139q10 35 29 86.5t30 86t11 53.5q0 65 -57 65q-63 0 -124 -61t-95 -135.5
t-34 -125.5q0 -36 14.5 -54.5t49.5 -18.5q33 0 73.5 24t102.5 80zM698 98q-144 -113 -254 -113q-77 0 -77 74q0 10 9 52q-118 -115 -226 -115q-43 0 -68 28.5t-25 75.5q0 67 59 150.5t146 142t159 58.5q51 0 77 -20.5t26 -52.5q0 -19 -8.5 -44t-26.5 -62.5t-22 -47.5
q35 42 78.5 91t50.5 58q26 30 50 38q29 10 38 10l2 -2q0 -2 -1 -3t-6 -3.5t-10 -6.5q-13 -10 -45 -42q-65 -67 -170 -182q-16 -60 -16 -92q0 -34 14 -49t54 -15q35 0 87 24t97 58q62 48 136 140q4 6 8 6t4 -4q0 -2 -2 -6q-68 -92 -138 -146z" />
    <glyph glyph-name="uni1FC3" unicode="&#x1fc3;" horiz-adv-x="630" 
d="M213 -100q6 0 6 -6q0 -4 -15.5 -16.5t-31 -35t-15.5 -48.5q0 -24 18.5 -41t45.5 -17q12 0 29 4l17 5q2 0 2 -3q0 -2 -16 -8t-37.5 -11t-34.5 -5q-86 0 -86 58q0 33 29 64t56 45.5t33 14.5zM305 411q0 -39 -32 -97q52 50 122.5 94t116.5 44q31 0 54 -22t23 -52
q0 -43 -74.5 -164t-74.5 -156q0 -16 9 -27t23 -11q40 0 94 27.5t96 60.5q62 48 136 140q4 6 8 6t4 -4q0 -2 -2 -6q-68 -92 -138 -146q-71 -57 -141.5 -87.5t-111.5 -30.5q-26 0 -43 15.5t-17 41.5q0 41 37 108t74 129.5t37 94.5q0 21 -12.5 33t-27.5 12q-76 0 -209 -144
l-148 -262q-3 -5 -9.5 -7t-19.5 -2.5t-22 -2.5q-12 -3 -24 -7t-16 -4t-4 4q0 1 1.5 2.5l4.5 4.5t6 7q13 18 51 83q63 109 92 162q16 31 38 83t22 69q0 32 -20 32q-23 0 -74 -34q-9 -6 -10 -6q-4 0 -4 4t6 8q75 56 120 56q29 0 44 -13.5t15 -35.5z" />
    <glyph glyph-name="uni1FF3" unicode="&#x1ff3;" horiz-adv-x="730" 
d="M309 -86q6 0 6 -6q0 -4 -15.5 -16.5t-31 -35t-15.5 -48.5q0 -24 18.5 -41t45.5 -17q12 0 29 4l17 5q2 0 2 -3q0 -2 -16 -8t-37.5 -11t-34.5 -5q-86 0 -86 58q0 33 29 64t56 45.5t33 14.5zM595 415q0 13 30 29q5 3 10.5 6.5t9 6t7 4t5.5 1.5q6 0 6 -8q0 -7 -1 -13.5
t-1 -19.5q0 -21 23.5 -41t65.5 -20q33 0 106 44q9 6 10 6q4 0 4 -4t-6 -8q-106 -74 -174 -74q4 -32 4 -54q0 -65 -20.5 -118.5t-50.5 -85.5t-66.5 -53.5t-66.5 -30t-52 -8.5q-65 0 -94 52q-4 8 -12 30q-32 -27 -76.5 -47.5t-83.5 -20.5q-37 0 -69 24.5t-32 80.5
q0 103 99 222q4 4 11.5 13t11.5 14l10 12.5t9.5 13t7.5 11.5t5.5 11t1.5 9q0 27 -26 27q-25 0 -67 -28q-9 -6 -10 -6q-4 0 -4 4t6 8q9 7 26 18t45.5 24.5t45.5 13.5q58 0 58 -39q0 -14 -11.5 -31t-36 -43t-31.5 -35q-80 -101 -80 -191q0 -105 72 -105q60 0 112 74q0 38 6 68
t15 46.5t18 27.5t15 14l6 4q4 3 18.5 8.5t17.5 5.5q14 0 14 -18q0 -51 -44 -118q2 -44 28.5 -82t65.5 -38q50 0 86 43t50 92t14 91q0 69 -23 121q-18 39 -18 60z" />
    <glyph glyph-name="uni1FE5" unicode="&#x1fe5;" horiz-adv-x="547" 
d="M542 568q10 -15 10 -16q0 -6 -8 -6q-4 0 -12.5 13.5t-16.5 39.5t-8 52q0 51 28.5 88t47.5 37q5 0 13.5 -7t8.5 -15q0 -2 -18.5 -18.5t-37.5 -47t-19 -66.5q0 -33 12 -54zM415 389q-54 0 -111 -37t-114 -107t-103.5 -142t-103.5 -171q-99 -174 -168.5 -333.5
t-159.5 -407.5q-23 -61 -32 -93q-1 -3 -2.5 -5.5t-4 -4.5t-4.5 -3.5t-6.5 -3l-7.5 -2.5t-9 -3.5t-10 -3.5q-14 -5 -25 -11.5t-16.5 -10t-7.5 -3.5q-4 0 -4 7q0 12 50 124q75 169 113.5 253.5t115.5 235.5t154 281q74 125 132.5 209.5t123.5 155t130.5 104t134.5 33.5
q31 0 57 -22t26 -60q0 -110 -151 -246q-61 -56 -139.5 -98t-156.5 -42q-38 0 -38 14q0 9 16 30q2 3 5 8t4.5 8t3.5 5.5t4 2.5q1 0 2 -2.5t2.5 -6.5t3.5 -7q15 -22 53 -22q65 0 139 56t121.5 129.5t47.5 125.5q0 66 -65 66z" />
    <glyph glyph-name="uni1FE4" unicode="&#x1fe4;" horiz-adv-x="547" 
d="M522 568q42 42 42 109q0 23 -7 37.5t-14 22t-7 12.5q0 9 13 18t19 9q14 0 25 -23t11 -46q0 -35 -22 -75t-43.5 -63t-27.5 -23t-6 4q0 3 2.5 5.5t7.5 6.5t7 6zM415 389q-54 0 -111 -37t-114 -107t-103.5 -142t-103.5 -171q-99 -174 -168.5 -333.5t-159.5 -407.5
q-23 -61 -32 -93q-1 -3 -2.5 -5.5t-4 -4.5t-4.5 -3.5t-6.5 -3l-7.5 -2.5t-9 -3.5t-10 -3.5q-14 -5 -25 -11.5t-16.5 -10t-7.5 -3.5q-4 0 -4 7q0 12 50 124q75 169 113.5 253.5t115.5 235.5t154 281q74 125 132.5 209.5t123.5 155t130.5 104t134.5 33.5q31 0 57 -22t26 -60
q0 -110 -151 -246q-61 -56 -139.5 -98t-156.5 -42q-38 0 -38 14q0 9 16 30q2 3 5 8t4.5 8t3.5 5.5t4 2.5q1 0 2 -2.5t2.5 -6.5t3.5 -7q15 -22 53 -22q65 0 139 56t121.5 129.5t47.5 125.5q0 66 -65 66z" />
    <glyph glyph-name="uni0374" unicode="&#x374;" horiz-adv-x="286" 
d="M194 -78q19 0 35.5 -32.5t16.5 -55.5q0 -56 -43 -106.5t-95 -81.5l-6 -2q-6 0 -6 4q0 9 12 18q98 60 98 144q0 19 -12 35.5t-24 27t-12 15.5q0 9 15 21.5t21 12.5z" />
    <glyph glyph-name="uni0375" unicode="&#x375;" horiz-adv-x="320" 
d="M126 -38q4 0 4 -5q0 -12 -8 -42q-13 -50 -66 -111t-100 -98t-56 -37q-6 0 -6 4v2t0.5 1.5l1.5 1.5l2.5 2.5t3.5 2.5t5 3.5t6.5 5t8.5 6t10 7.5q91 68 115 162q12 49 15 52q3 4 35 23q9 5 15.5 10.5t9 7.5t4.5 2z" />
    <glyph glyph-name="space" unicode=" " horiz-adv-x="420" 
 />
    <glyph glyph-name="quotedbl" unicode="&#x22;" horiz-adv-x="480" 
d="M297 544q-12 0 -12 12q0 2 24 48l139 269q2 4 11 7.5t23.5 8t20.5 7.5q4 1 9 4t8.5 4.5t6.5 1.5q5 0 5 -8q0 -2 -15.5 -21t-65 -92.5t-114.5 -184.5q-21 -37 -27.5 -46.5t-12.5 -9.5zM436 550q-10 0 -10 10q0 6 20 44l145 278q2 4 11 8.5t26 11.5t20 8q25 10 27 10
q6 0 6 -6q0 -2 -19 -25t-71.5 -100.5t-116.5 -188.5q-19 -33 -25.5 -41.5t-12.5 -8.5z" />
    <glyph glyph-name="numbersign" unicode="#" horiz-adv-x="582" 
d="M483 335q94 170 117 213q-92 0 -164 -3q-45 -80 -120 -221q56 3 167 11zM612 861q-5 -9 -64.5 -116t-77.5 -139q64 5 168 12q91 169 130 250q2 5 13 7q31 9 38 9q4 0 4 -2q0 -1 -1.5 -3t-4 -5.5t-4.5 -6.5q-7 -10 -134 -245q52 4 99 4q14 0 14 -6q0 -2 -2.5 -4.5t-8 -8.5
t-11.5 -15q-3 -4 -8.5 -12t-8.5 -12.5t-7.5 -9.5t-8 -7.5t-7.5 -2.5h-92q-45 -81 -115 -211q55 3 87 3q20 0 20 -7q0 -2 -2 -5t-7 -9.5t-9 -12.5q-18 -29 -28 -35.5t-35 -8.5q-20 -2 -67 -2q-23 -43 -68.5 -129t-59.5 -113q-4 -9 -30 -19q-31 -11 -34 -11t-3 3q0 1 7 13
q33 57 85.5 149t60.5 106q-121 -6 -164 -9q-27 -51 -124 -236q-4 -7 -30 -18q-34 -13 -36 -13q-3 0 -3 3q0 1 1.5 2.5t3.5 4.5l4 6q40 69 141 247q-13 -1 -39 -2.5t-45 -3t-23 -1.5q-6 0 -6 6q0 5 20 30q18 23 46 32t90 15q29 52 121 221q-14 -1 -40 -3.5t-46.5 -5
t-21.5 -2.5q-7 0 -7 6q0 3 13 20q1 1 4 5t4 5t3.5 4.5t4.5 4.5t5 3t6 3.5t7 2.5q40 12 101 17q89 161 142 261q2 4 11 6q4 1 20.5 6.5t17.5 5.5q4 0 4 -2q0 -1 -2 -3t-5 -6.5t-6 -9.5z" />
    <glyph glyph-name="dollar" unicode="$" horiz-adv-x="722" 
d="M76 136q0 6 24 30q14 14 28.5 31.5t22 27t9.5 9.5q6 0 6 -4l-9 -14q-9 -15 -9 -26q0 -138 110 -172l224 432q-31 41 -47 63.5t-31.5 58t-15.5 66.5q0 65 53 123.5t127 91t142 33.5q61 116 70 135q2 4 12 6q17 5 24 5q6 0 6 -1t-1.5 -3l-3 -4t-2.5 -4q-7 -12 -73 -136
q26 -3 49 -13t37 -22t24 -25t14 -21.5t4 -12.5t-7 -10t-20 -15t-19 -13q-17 -12 -18 -12q-6 0 -6 6q0 26 -24 50t-62 36l-166 -320q76 -89 99 -129q29 -51 29 -97q0 -79 -65 -154.5t-159 -120t-182 -45.5l-104 -192q-2 -4 -6 -7t-12.5 -8.5t-11.5 -7.5q-33 -21 -36 -21t-3 3
q0 1 1 2.5l2 3t2 3.5l130 226q-85 15 -120.5 63t-35.5 105zM528 536l158 304q-10 2 -34 2q-90 0 -142 -49.5t-52 -112.5q0 -56 70 -144zM504 424l-212 -412q32 -4 42 -4q115 0 187.5 73t72.5 147q0 49 -23.5 94.5t-66.5 101.5z" />
    <glyph glyph-name="ampersand" unicode="&#x26;" horiz-adv-x="1016" 
d="M666 546q0 -26 -27.5 -43t-64.5 -17q-34 0 -66.5 22t-49.5 54q-63 -10 -110.5 -40.5t-73 -72.5t-38 -84.5t-12.5 -84.5q0 -117 87 -191.5t199 -74.5q122 0 197.5 81t94.5 191q-19 12 -59 41.5t-67 43t-54 13.5q-19 0 -33.5 -16.5t-14.5 -37.5t23 -41.5t23 -22.5
q0 -6 -28 -6h-8q-66 0 -66 62q0 30 35 51t81 21q52 0 111.5 -24.5t103.5 -54.5t95.5 -54.5t89.5 -24.5q28 0 56 28q5 5 10.5 11.5t8 10.5t3.5 4q4 0 4 -4q0 -6 -20 -26q-46 -52 -82 -52q-69 0 -158 48q-14 -41 -51 -89t-90 -93t-126 -74.5t-147 -29.5q-114 0 -202 75.5
t-88 194.5q0 124 87 215t209 131q-8 21 -8 58q0 73 42.5 130t99 83.5t110.5 26.5q63 0 118.5 -27t55.5 -67q0 -4 -2.5 -9t-8 -12.5t-9.5 -14.5q-17 -32 -20 -32q-4 0 -4 4q0 48 -54.5 83t-107.5 35q-88 0 -141 -50t-53 -128q0 -35 16 -70q57 10 94 10q34 0 62 -15.5
t28 -44.5zM502 566q46 -60 86 -60q28 0 28 26q0 34 -114 34z" />
    <glyph glyph-name="quotesingle" unicode="'" horiz-adv-x="360" 
d="M304 544q-12 0 -12 12q0 2 24 48l143 276q2 4 12 8.5t26 11t21 8.5q4 1 9 4t8.5 4.5t6.5 1.5q6 0 6 -6q0 -2 -17 -24t-69 -99.5t-118 -188.5q-5 -8 -10 -16.5t-8 -13t-6 -10t-5 -8t-4 -4.5t-3.5 -3t-3.5 -1z" />
    <glyph glyph-name="less" unicode="&#x3c;" horiz-adv-x="800" 
d="M266 320q0 -22 381 -159q16 -6 19 -9q1 -1 1 -4q0 -2 -2 -5.5t-6 -10t-8 -13.5q-13 -25 -15 -27q-3 -3 -26 6q-97 40 -259 114.5t-162 89.5q0 27 32 42q40 20 275 104t291 107q26 11 31 11t10.5 -12t5.5 -17q0 -7 -19 -12q-92 -23 -291.5 -93t-243.5 -97q-14 -8 -14 -15z
" />
    <glyph glyph-name="greater" unicode="&#x3e;" horiz-adv-x="800" 
d="M702 314q0 22 -381 159q-16 6 -19 9q-1 1 -1 4q0 2 2 5.5t6 10t8 13.5q13 25 15 27q3 3 26 -6q97 -40 259 -114.5t162 -89.5q0 -27 -32 -42q-40 -20 -275 -104t-291 -107q-26 -11 -31 -11t-10.5 12t-5.5 17q0 7 19 12q92 23 291.5 93t243.5 97q14 8 14 15z" />
    <glyph glyph-name="question" unicode="?" horiz-adv-x="640" 
d="M568 838q-58 0 -138 -55q-8 -6 -19 -14l-16.5 -12t-8.5 -4q-7 0 -7 6t42 39q112 88 219 88q56 0 90 -31.5t34 -88.5q0 -26 -12.5 -51t-27.5 -42t-46 -38t-48 -30.5t-55 -28.5t-47 -24q-45 -24 -74.5 -42.5t-62 -45t-49 -57.5t-16.5 -65q0 -35 30.5 -60t67.5 -25
q15 0 19 5l1 1q4 0 4 -5q0 -6 -13.5 -25t-15.5 -22t-4 -7t-2.5 -5.5t-2 -3.5t-2.5 -2.5t-3 -1t-5 -0.5q-48 0 -94 35.5t-46 89.5q0 32 13 61t29.5 49.5t52.5 46t61 40.5t76 43q12 7 18 10q12 6 43.5 21.5t49 26.5t40 29t33 40.5t10.5 50.5q0 44 -33.5 74t-84.5 30zM157 38
q0 27 24.5 50t54.5 23q16 0 28 -14t12 -32q0 -31 -28 -51t-53 -20q-38 0 -38 44z" />
    <glyph glyph-name="at" unicode="@" horiz-adv-x="926" 
d="M712 230q47 0 88 22t69 56.5t48 75.5t29.5 78.5t9.5 67.5q0 114 -69 173t-168 59q-113 0 -210.5 -43.5t-160.5 -114t-98.5 -157t-35.5 -175.5q0 -113 75 -187.5t175 -74.5q247 0 388 130q11 9 29 18.5t27 9.5q4 0 4 -2q-7 -8 -20.5 -21t-60 -47t-98 -60t-134 -47
t-169.5 -21q-116 0 -199 78.5t-83 187.5q0 98 35.5 187t96 155t138 115.5t163.5 75t171 25.5q65 0 121 -23t95.5 -77.5t39.5 -133.5q0 -88 -46.5 -173.5t-127 -141t-170.5 -55.5q-31 0 -51.5 17t-20.5 43q0 2 1 7t1 7q-81 -56 -144 -56q-34 0 -57 24t-23 60q0 98 90 186
t184 88q83 0 98 -42q14 14 32 20q20 10 40 10q6 0 6 -6q0 -2 -14 -16q-46 -46 -88 -116q-52 -88 -52 -146q0 -17 13.5 -28.5t32.5 -11.5zM600 288q35 115 126 222q-16 48 -70 48q-72 0 -142 -89.5t-70 -168.5q0 -22 10.5 -42t31.5 -20q37 0 114 50z" />
    <glyph glyph-name="A" unicode="A" horiz-adv-x="980" 
d="M1020 98q-24 -20 -53.5 -39.5t-83.5 -43t-97 -23.5q-58 0 -77 37.5t-19 124.5q0 58 12 142q-90 -10 -120 -10q-41 0 -107 11t-83 11q-14 0 -20 -2q-192 -219 -270 -284q-29 -22 -86 -28q-5 -1 -15.5 -3t-20 -3t-18.5 -1q-12 0 -12 7q0 6 16 10q30 10 64 40
q151 132 315 297.5t401 442.5q16 18 26.5 30.5t21.5 22.5t16 14.5t15.5 10.5t13.5 7.5t17 7t20 7.5q3 1 20.5 9.5t23.5 8.5q8 0 8 -10q0 -8 -4.5 -20.5t-10.5 -26t-7 -15.5q-29 -74 -63 -220.5t-51 -277.5q31 9 65 28t55 33.5t24 14.5q6 0 6 -6q0 -5 -22 -21t-59 -35.5
t-71 -31.5q-10 -87 -10 -136q0 -83 15.5 -116t45.5 -33t78.5 23t92.5 56q62 48 136 140q4 6 8 6t4 -4q0 -2 -2 -6q-68 -92 -138 -146zM404 342h34q40 0 117 -12t111 -12q24 0 40 2q7 58 20 128.5t26.5 130t25.5 110.5t20 81.5t8 31.5q0 6 -3 6q-7 0 -33 -32z" />
    <glyph glyph-name="B" unicode="B" horiz-adv-x="850" 
d="M396 476q-113 -217 -219 -449q-6 -15 -16 -20.5t-40 -13.5q-24 -7 -40.5 -15t-23 -12t-11.5 -4q-7 0 -7 5q0 2 4 6.5t13 16.5t19 27q43 66 85.5 144t92 174.5t73.5 141.5q11 19 45.5 89.5t44.5 87.5q65 110 163 171t183 61q60 0 101 -40t41 -106q0 -157 -268 -259l1 -2
q23 1 32 1q68 0 119.5 -50.5t51.5 -113.5q0 -132 -124.5 -231.5t-292.5 -99.5q-85 0 -142 22t-57 45q0 5 15 25q3 4 8.5 13t9.5 15t6 6q3 0 3 -4q0 -32 48.5 -65t106.5 -33q127 0 229 103.5t102 227.5q0 59 -37.5 90t-82.5 31q-33 0 -54.5 -13t-37.5 -13q-5 0 -16.5 9
t-11.5 14q0 6 8 9t23.5 5t21.5 4q93 28 172.5 94.5t79.5 148.5q0 57 -34 91t-85 34q-49 0 -84 -22.5t-78 -89.5q-33 -52 -140 -256z" />
    <glyph glyph-name="C" unicode="C" horiz-adv-x="860" 
d="M944 744q-5 -8 -10 -8q-6 0 -6 8q0 34 -46 66t-98 32q-175 0 -300 -114q-221 -201 -221 -453q0 -102 52 -175q65 -91 185 -91q86 0 158.5 46.5t114.5 112.5q13 20 13 31q0 5 -1.5 8.5t-1.5 5.5q0 4 5 4q2 0 3.5 -1.5t7 -6.5t12.5 -10q5 -4 11 -7.5t9.5 -5.5t5.5 -4.5
t2 -5.5q0 -12 -17 -35q-54 -76 -153 -118.5t-209 -42.5q-72 0 -134.5 22t-99.5 68q-62 78 -62 185q0 138 80.5 265.5t215.5 226.5q189 139 388 139q29 0 54.5 -7t41.5 -17t27 -21.5t16 -20t5 -12.5q0 -10 -20.5 -31t-27.5 -33z" />
    <glyph glyph-name="D" unicode="D" horiz-adv-x="1140" 
d="M430 122q40 -28 65.5 -43t67 -29.5t82.5 -14.5q119 0 225 74t165 184.5t59 221.5q0 149 -73 234.5t-203 105.5q-24 -127 -148 -382q-40 -82 -104.5 -179.5t-135.5 -171.5zM370 129q-52 54 -108 54q-39 0 -79 -37.5t-40 -86.5q0 -50 58 -53h3q67 0 166 123zM717 886
q200 0 319.5 -110t119.5 -308q0 -131 -65.5 -243t-182 -178.5t-256.5 -66.5q-49 0 -89 9.5t-70 28t-49 35t-42 41.5q-113 -106 -212 -106q-41 0 -72.5 27.5t-31.5 64.5q0 60 49.5 93t106.5 34q63 0 146 -56q86 114 190 319q124 247 157 391h-2q-130 0 -220.5 -67t-90.5 -129
q0 -6 1 -10.5t1.5 -7t1.5 -4.5t1 -3q0 -4 -5 -4q-2 0 -6 2.5t-10.5 6.5t-11.5 7q-30 17 -30 32q0 72 108 137t245 65z" />
    <glyph glyph-name="E" unicode="E" horiz-adv-x="834" 
d="M430 -24q-100 0 -186 60t-86 154q0 68 29.5 126t73.5 93.5t96 64t96 43t73.5 24.5t29.5 13q0 8 -12 16q-61 42 -61 117q0 31 19 65t54.5 64.5t95 50t130.5 19.5q20 0 52 -4t69.5 -12.5t64 -25t26.5 -38.5q0 -9 -3.5 -16t-11 -19t-13.5 -25q-8 -16 -12 -16t-8 12
q-12 41 -61.5 80.5t-124.5 39.5q-55 0 -97.5 -13.5t-64 -34.5t-32 -41t-10.5 -37q0 -38 19.5 -77.5t52.5 -58.5q40 -19 40 -24q0 -17 -8 -27t-34 -13q-88 -10 -155 -36t-106.5 -58.5t-64.5 -74.5t-33.5 -81t-8.5 -82q0 -50 21.5 -88.5t56 -59t70.5 -31t72 -10.5
q137 0 215 72t78 163q0 7 -2 15.5t-2 10.5q0 6 4 6q7 0 28 -15t21 -26q0 -23 -16 -56t-49.5 -69.5t-78.5 -67.5t-110 -51.5t-136 -20.5z" />
    <glyph glyph-name="F" unicode="F" horiz-adv-x="670" 
d="M480 886q85 0 203.5 -11.5t208.5 -11.5q118 0 129 58q3 18 10 18q8 0 8 -9q0 -35 -69 -75t-151 -40q-58 0 -212 19q-7 -12 -195 -358h138q64 0 117 3t80.5 6t28.5 3q5 0 5 -4q0 -1 -1 -2t-3 -4t-5 -8q-2 -4 -4.5 -9.5t-3.5 -8t-3 -5.5t-4 -4t-5 -1q-75 0 -211.5 3.5
t-143.5 3.5q-142 -265 -201 -388q-20 -41 -31.5 -49t-45.5 -12q-25 -3 -43.5 -10t-22.5 -7q-7 0 -7 5q0 2 3.5 5.5t12 14.5t18.5 26q66 102 128 214q24 43 110 202q-21 -1 -25 -1q-13 0 -13 13q0 15 53 15q111 209 184 366q-59 2 -73 2q-125 0 -190 -63q-20 -20 -22 -20
q-6 0 -6 6t22 28q88 90 232 90z" />
    <glyph glyph-name="G" unicode="G" horiz-adv-x="970" 
d="M729 339l-24 2t-18 1t-11 0.5t-7 1.5t-2 3q0 15 47 15q49 0 106 -3.5t123 -3.5q14 0 14 -7q0 -2 -4.5 -3.5t-12.5 -5t-14 -9.5q-17 -15 -52 -72q-14 -24 -26.5 -49.5t-26.5 -55.5l-21 -45q-50 -104 -50 -193q0 -83 36 -136t119 -53q67 0 119 51q16 16 26 35.5t15 29.5
t11 10q14 0 14 -11q0 -9 -6 -18q-35 -51 -88 -84.5t-117 -33.5q-107 0 -156.5 60t-49.5 153q0 67 33 148q-122 -90 -275 -90q-122 0 -194.5 81.5t-72.5 197.5q0 138 80.5 265.5t215.5 226.5q189 139 368 139q88 0 152 -57.5t64 -111.5q0 -22 -13 -35q-1 -4 -6 -9.5
t-13.5 -13t-13.5 -14.5q-5 -6 -13 -17t-13 -16.5t-7 -5.5q-6 2 -6 4v2q1 3 5 12.5t6 15.5q4 6 4 18q0 22 -10.5 50.5t-32 60t-65.5 52.5t-102 21q-65 0 -141.5 -29t-138.5 -85q-221 -201 -221 -453q0 -117 65 -192t160 -75q152 0 262 185q41 68 41 101q0 20 -12.5 30.5
t-49.5 14.5z" />
    <glyph glyph-name="H" unicode="H" horiz-adv-x="1025" 
d="M386 409q0 -1 -1.5 -3.5t-2.5 -3.5q-190 -367 -202 -392q-4 -7 -15.5 -10.5t-33 -5.5t-30.5 -4q-16 -3 -25.5 -11.5t-13.5 -8.5t-4 6t71 130q91 158 163 285q-3 19 -8.5 36.5t-5.5 22.5q0 10 6 10q22 0 46 -1q45 84 57 110q74 155 74 224q0 53 -50 53q-73 0 -137 -64
q-20 -20 -22 -20q-6 0 -6 6t22 28q44 46 97 68t89 22q39 0 67 -25.5t28 -69.5q0 -73 -91 -247q-6 -12 -47 -87q43 -1 172 -1q171 1 239 7q29 55 209 379q4 6 11 10t12.5 5.5t19.5 3.5t22 3q18 3 34.5 9t25 9.5t11.5 3.5q6 0 6 -6q0 -2 -2 -3.5t-7 -6t-11.5 -11.5t-18 -21.5
t-23.5 -33.5q-139 -210 -211 -355q-44 -87 -68 -137t-47.5 -113.5t-23.5 -95.5q0 -37 20.5 -58t55.5 -21q42 0 105.5 22.5t114.5 61.5q62 48 136 140q4 6 8 6t4 -4q0 -2 -2 -6q-68 -92 -138 -146q-163 -122 -300 -122q-51 0 -78 30t-27 78q0 17 3.5 36t12.5 43t16.5 43
t23 50.5t24.5 49.5t28.5 55.5t28.5 54.5q-27 13 -143 13q-233 0 -268 -20z" />
    <glyph glyph-name="I" unicode="I" horiz-adv-x="400" 
d="M229 142q-28 -55 -63 -138q-4 -10 -17 -11.5t-36.5 -2t-42.5 -8.5q-10 -4 -17 -9t-11 -5q-10 0 -10 6q0 3 6.5 11t16.5 19.5t13 15.5q36 47 106 177q120 220 277 521q42 81 42 102q0 18 -19 23q-3 1 -9 2t-8.5 2t-2.5 4q0 13 16 13q44 0 103.5 4.5t68.5 4.5q4 0 7 -4
t3 -7q0 -4 -3.5 -4.5t-14 -4.5t-22.5 -14q-27 -22 -85 -129q-135 -249 -298 -568z" />
    </font>
</defs>
</svg>
